+ ตอบกลับกระทู้
สรุปผลการค้นหา 1 ถึง 4 จากทั้งหมด 4
  1. #1
    Administrators รูปส่วนตัว Duckload.us
    สมัครเมื่อ
    Dec 2010
    โพสต์
    129,844
    Thanks
    7
    Thanked 133,711 Times in 59,209 Posts

    Thumbs up [ฝรั่ง]-Luca (2021) ลูก้า - [Soundtrack] [บรรยายไทย+อังกฤษ] 1080p.DSNP.WEB-DL.DDP5.1.Atmos.H.264




    Luca ลูก้า ภาพยนตร์แอนิเมชั่นเรื่องใหม่ล่าสุดประจำปี 2021 ของดิสนีย์ พิกซาร์ คือเรื่องราวอันแสนสนุกและอบอุ่นหัวใจ เกี่ยวกับมิตรภาพ การก้าวข้ามพื้นที่ปลอดภัยของตัวเอง และ 2 มอนสเตอร์วัยรุ่นใต้ท้องทะเลกับหน้าร้อนที่จะเปลี่ยน ชีวิตพวกเขา

    เรื่องราวของการก้าวข้ามวัยของเด็กชายคนหนึ่งกับประส บการณ์ในหน้าร้อนที่ยากจะลืม ที่เต็มไปด้วยเจลาโต้ พาสต้า และการขี่สกู๊ตเตอร์แบบไม่รู้จบ ลูก้าได้ออกผจญภัยไปกับเพื่อนซี้คนใหม่ที่เพิ่งได้เจ อ แต่ความสนุกทั้งหลายก็ถูกขัดขวางโดยความลับที่ถูกเก็ บไว้ ว่าพวกเขาคือมอนสเตอร์ใต้ทะเลลึกจากโลกใต้น้ำ


    Duration : 1 h 35 min
    Overall bit rate mode : Variable
    Overall bit rate : 7 617 kb/s
    Encoded date : UTC 2021-06-18 09:12:49
    Writing application : mkvmerge v58.0.0 ('Supper's Ready') 64-bit
    Writing library : libebml v1.4.2 + libmatroska v1.6.4
    Cover : Yes
    Attachments : cover

    Video
    ID : 1
    Format : AVC
    Format/Info : Advanced Video Codec
    Format profile : [email protected]
    Format settings : CABAC / 4 Ref Frames
    Format settings, CABAC : Yes
    Format settings, Reference frames : 4 frames
    Codec ID : V_MPEG4/ISO/AVC
    Duration : 1 h 35 min
    Bit rate mode : Variable
    Bit rate : 6 805 kb/s
    Maximum bit rate : 12.7 Mb/s
    Width : 1 920 pixels
    Height : 1 080 pixels
    Display aspect ratio : 16:9
    Frame rate mode : Constant
    Frame rate : 23.976 (24000/1001) FPS
    Color space : YUV
    Chroma subsampling : 4:2:0
    Bit depth : 8 bits
    Scan type : Progressive
    Bits/(Pixel*Frame) : 0.137
    Stream size : 4.53 GiB (89%)
    Default : Yes
    Forced : No
    Color range : Limited
    Color primaries : BT.709
    Transfer characteristics : BT.709
    Matrix coefficients : BT.709

    Audio
    ID : 2
    Format : E-AC-3 JOC
    Format/Info : Enhanced AC-3 with Joint Object Coding
    Commercial name : Dolby Digital Plus with Dolby Atmos
    Codec ID : A_EAC3
    Duration : 1 h 35 min
    Bit rate mode : Constant
    Bit rate : 768 kb/s
    Channel(s) : 6 channels
    Channel layout : L R C LFE Ls Rs
    Sampling rate : 48.0 kHz
    Frame rate : 31.250 FPS (1536 SPF)
    Compression mode : Lossy
    Stream size : 523 MiB (10%)
    Language : English
    Service kind : Complete Main
    Default : No
    Forced : No
    Complexity index : 16
    Number of dynamic objects : 15
    Bed channel count : 1 channel
    Bed channel configuration : LFE

    Text #1
    ID : 3
    Format : UTF-8
    Codec ID : S_TEXT/UTF8
    Codec ID/Info : UTF-8 Plain Text
    Duration : 1 h 34 min
    Bit rate : 75 b/s
    Count of elements : 1989
    Stream size : 51.8 KiB (0%)
    Language : English
    Default : No
    Forced : No

    Text #2
    ID : 4
    Format : PGS
    Muxing mode : zlib
    Codec ID : S_HDMV/PGS
    Codec ID/Info : Picture based subtitle format used on BDs/HD-DVDs
    Duration : 1 h 34 min
    Bit rate : 51.5 kb/s
    Count of elements : 3978
    Stream size : 34.8 MiB (1%)
    Language : English
    Default : No
    Forced : No

    Text #3
    ID : 5
    Format : UTF-8
    Codec ID : S_TEXT/UTF8
    Codec ID/Info : UTF-8 Plain Text
    Duration : 1 h 33 min
    Bit rate : 126 b/s
    Count of elements : 1309
    Stream size : 86.3 KiB (0%)
    Language : Thai
    Default : No
    Forced : No

    Text #4
    ID : 6
    Format : PGS
    Muxing mode : zlib
    Codec ID : S_HDMV/PGS
    Codec ID/Info : Picture based subtitle format used on BDs/HD-DVDs
    Duration : 1 h 33 min
    Bit rate : 30.2 kb/s
    Count of elements : 2618
    Stream size : 20.2 MiB (0%)
    Language : Thai
    Default : Yes
    Forced : Yes





    Download:cornfile
    http://cornfile.com/g14u4p5a2sl9
    Download:filecondo
    http://www.filecondo.com/dl.php?f=1ad5691LUwcU

  2. The Following 3 Users Say Thank You to Duckload.us For This Useful Post:

    jackjangri (06-19-2021), NaiWan (06-22-2021), Wesker_TOT (06-19-2021)

  3. #2
    Senior Member
    สมัครเมื่อ
    Jul 2013
    โพสต์
    2,517
    Thanks
    0
    Thanked 0 Times in 0 Posts
    ขอบคุณคร๊าบ

  4. #3
    Senior Member
    สมัครเมื่อ
    Dec 2013
    โพสต์
    3,161
    Thanks
    5,077
    Thanked 0 Times in 0 Posts
    ขอบคุณครับ...

  5. #4
    Senior Member
    สมัครเมื่อ
    Jun 2011
    โพสต์
    262
    Thanks
    415
    Thanked 40 Times in 29 Posts
    ขอบคุณครับ

+ ตอบกลับกระทู้

ข้อมูลกระทู้

Users Browsing this Thread

ในขณะนี้มี 1 ท่านดูกระทู้อยู่. (0 สมาชิกและ 1 ผู้เยี่ยมชม)

     

กฎการโพสต์ข้อความ

  • ท่าน ไม่สามารถ ตั้งกระทู้ใหม่ได้
  • ท่าน ไม่สามารถ ตอบกระทู้ได้
  • ท่าน ไม่สามารถ แนบไฟล์ได้
  • ท่าน ไม่สามารถ แก้ไขข้อความโพสต์ได้
  • BB code สถานะ เปิด
  • Smilies สถานะ เปิด
  • [IMG] สถานะ เปิด
  • HTML สถานะ ปิด