+ ตอบกลับกระทู้
สรุปผลการค้นหา 1 ถึง 3 จากทั้งหมด 3
  1. #1
    Administrators รูปส่วนตัว Duckload.us
    สมัครเมื่อ
    Dec 2010
    โพสต์
    129,844
    Thanks
    7
    Thanked 133,711 Times in 59,209 Posts

    Thumbs up [ฝรั่ง]-[*ใหม่!+เสียงไทย-ซับไทย มาสเตอร์*] Nobody (2021) คนธรรมดาเรียกพี่ WEBRip.H264 [เสียงอังกฤษ AC3-5.1+พากย์ไทย Master]



    Nobody_(2021)
    เมื่อขโมย 2 คน บุกเข้าในในบ้านของเขาในละแวกชานเมือง ฮัทช์ (บ๊อบ โอเดนเคิร์ค) ไม่ได้ทำอะไรเพื่อปกป้องตัวเองและครอบครัว
    โดยหวังว่าจะไม่เกิดความรุนแรงขึ้น ซึ่งทำให้ เบลค (เกจ มันโรว์) ลูกชายวัยรุ่นผิดหวังในตัวเขา
    ส่วนภรรยา เบ็กก้า (คอนนี่ นีลเซน) ดูเหมือนจะตีตัวออกห่าง !!!

    Format : Matroska
    Format version : Version 4
    File size : 4.76 GiB
    Duration : 1 h 31 min
    Overall bit rate : 7 434 kb/s
    Movie name : Nobody.2021.1080p.WEBRip.x264_©GOLD CUP™_WWW.TT-TORRENT.COM
    Encoded date : UTC 2021-06-18 09:42:04
    Writing application : mkvmerge v58.0.0 ('Supper's Ready') 64-bit
    Writing library : libebml v1.4.2 + libmatroska v1.6.4
    Cover : Yes
    Attachments : cover

    Video
    ID : 1
    Format : AVC
    Format/Info : Advanced Video Codec
    Format profile : [email protected]
    Format settings : CABAC / 1 Ref Frames
    Format settings, CABAC : Yes
    Format settings, Reference frames : 1 frame
    Format settings, GOP : M=1, N=25
    Codec ID : V_MPEG4/ISO/AVC
    Duration : 1 h 31 min
    Bit rate mode : Constant
    Bit rate : 6 818 kb/s
    Width : 1 920 pixels
    Height : 800 pixels
    Display aspect ratio : 2.40:1
    Frame rate mode : Constant
    Frame rate : 29.970 (30000/1001) FPS
    Color space : YUV
    Chroma subsampling : 4:2:0
    Bit depth : 8 bits
    Scan type : Progressive
    Bits/(Pixel*Frame) : 0.148
    Stream size : 4.36 GiB (92%)
    Title : Nobody.2021.1080p.WEBRip.x264_©GOLD CUP™
    Language : English
    Default : Yes
    Forced : No

    Audio #1
    ID : 2
    Format : AC-3
    Format/Info : Audio Coding 3
    Commercial name : Dolby Digital
    Codec ID : A_AC3
    Duration : 1 h 31 min
    Bit rate mode : Constant
    Bit rate : 192 kb/s
    Channel(s) : 6 channels
    Channel layout : L R C LFE Ls Rs
    Sampling rate : 44.1 kHz
    Frame rate : 28.711 FPS (1536 SPF)
    Compression mode : Lossy
    Stream size : 126 MiB (3%)
    Title : En.5.1.AC3.192k
    Language : English
    Service kind : Complete Main
    Default : Yes
    Forced : No

    Audio #2
    ID : 3
    Format : AC-3
    Format/Info : Audio Coding 3
    Commercial name : Dolby Digital
    Codec ID : A_AC3
    Duration : 1 h 31 min
    Bit rate mode : Constant
    Bit rate : 192 kb/s
    Channel(s) : 2 channels
    Channel layout : L R
    Sampling rate : 48.0 kHz
    Frame rate : 31.250 FPS (1536 SPF)
    Compression mode : Lossy
    Stream size : 126 MiB (3%)
    Title : Th.2.0.AC3.192k
    Language : Thai
    Service kind : Complete Main
    Default : No
    Forced : No

    Audio #3
    ID : 4
    Format : AAC LC
    Format/Info : Advanced Audio Codec Low Complexity
    Codec ID : A_AAC-2
    Duration : 1 h 31 min
    Bit rate : 224 kb/s
    Channel(s) : 6 channels
    Channel layout : C L R Ls Rs LFE
    Sampling rate : 48.0 kHz
    Frame rate : 46.875 FPS (1024 SPF)
    Compression mode : Lossy
    Stream size : 147 MiB (3%)
    Title : AAC.5.1: 224 kb/s
    Language : English
    Default : Yes
    Forced : No

    Text #1
    ID : 5
    Format : VobSub
    Muxing mode : zlib
    Codec ID : S_VOBSUB
    Codec ID/Info : Picture based subtitle format used on DVDs
    Duration : 1 h 26 min
    Bit rate : 5 825 b/s
    Count of elements : 737
    Stream size : 3.61 MiB (0%)
    Title : Th.White.100.90.4
    Language : Thai
    Default : Yes
    Forced : No

    Text #2
    ID : 6
    Format : VobSub
    Muxing mode : zlib
    Codec ID : S_VOBSUB
    Codec ID/Info : Picture based subtitle format used on DVDs
    Duration : 1 h 31 min
    Bit rate : 9 895 b/s
    Count of elements : 1330
    Stream size : 6.48 MiB (0%)
    Title : En.SDH.Red.110.83.4
    Language : English
    Default : No
    Forced : No

    Text #3
    ID : 7
    Format : VobSub
    Muxing mode : zlib
    Codec ID : S_VOBSUB
    Codec ID/Info : Picture based subtitle format used on DVDs
    Duration : 1 h 26 min
    Bit rate : 5 787 b/s
    Count of elements : 741
    Stream size : 3.58 MiB (0%)
    Title : En.Yellow.110.83.4
    Language : English
    Default : Yes
    Forced : No





    Download:cornfile
    http://cornfile.com/r7jr69bx45we
    Download:filecondo
    http://www.filecondo.com/dl.php?f=q1c5ac1LUwNe

  2. The Following 5 Users Say Thank You to Duckload.us For This Useful Post:

    bigbang06 (06-19-2021), kappa (06-19-2021), noi54 (06-19-2021), sawara (06-18-2021), spiderpud2 (07-08-2021)

  3. #2
    Senior Member
    สมัครเมื่อ
    Dec 2013
    โพสต์
    467
    Thanks
    401
    Thanked 0 Times in 0 Posts
    ขอบคุณครับบ

  4. #3
    Senior Member
    สมัครเมื่อ
    Jul 2013
    โพสต์
    2,517
    Thanks
    0
    Thanked 0 Times in 0 Posts
    ขอบคุรครับ

+ ตอบกลับกระทู้

ข้อมูลกระทู้

Users Browsing this Thread

ในขณะนี้มี 1 ท่านดูกระทู้อยู่. (0 สมาชิกและ 1 ผู้เยี่ยมชม)

     

กฎการโพสต์ข้อความ

  • ท่าน ไม่สามารถ ตั้งกระทู้ใหม่ได้
  • ท่าน ไม่สามารถ ตอบกระทู้ได้
  • ท่าน ไม่สามารถ แนบไฟล์ได้
  • ท่าน ไม่สามารถ แก้ไขข้อความโพสต์ได้
  • BB code สถานะ เปิด
  • Smilies สถานะ เปิด
  • [IMG] สถานะ เปิด
  • HTML สถานะ ปิด