+ ͺѺз
ػšä 1 ֧ 4 ҡ 4
  1. #1
    Administrators ٻǹ Duckload.us
    Ѥ
    Dec 2010
    ʵ
    129,844
    Thanks
    7
    Thanked 133,711 Times in 59,209 Posts

    Lightbulb []-Pig (2021) -WEB-DL.EAC-3.1080p. [Modified]-[ҡѧ 5.1 -ѧ]




    ˹ѧҧشз֡ѭͧ न 㹺ѡ紷ѿżѹɷͧ͡٢ ͧҷ١ѡҵ 蹷ҵͧѺѧͧŹ༪ԭ˹ ҡѺʹյͧ


    Format : Matroska
    Format version : Version 4
    File size : 4.04 GiB
    Duration : 1 h 31 min
    Overall bit rate : 6 303 kb/s
    Encoded date : UTC 2021-07-17 12:35:52
    Writing application : mkvmerge v59.0.0 ('Shining Star') 64-bit
    Writing library : libebml v1.4.2 + libmatroska v1.6.4

    Video
    ID : 1
    Format : AVC
    Format/Info : Advanced Video Codec
    Format profile : [email protected]
    Format settings : CABAC / 3 Ref Frames
    Format settings, CABAC : Yes
    Format settings, Reference : 3 frames
    Codec ID : V_MPEG4/ISO/AVC
    Duration : 1 h 31 min
    Bit rate : 5 904 kb/s
    Width : 1 920 pixels
    Height : 804 pixels
    Display aspect ratio : 2.40:1
    Frame rate mode : Constant
    Frame rate : 23.976 (24000/1001) FPS
    Color space : YUV
    Chroma subsampling : 4:2:0
    Bit depth : 8 bits
    Scan type : Progressive
    Bits/(Pixel*Frame) : 0.160
    Stream size : 3.79 GiB (94%)
    Language : English
    Default : Yes
    Forced : No
    Color range : Limited
    Color primaries : BT.709
    Transfer characteristics : BT.709
    Matrix coefficients : BT.709

    Audio
    ID : 2
    Format : E-AC-3
    Format/Info : Enhanced AC-3
    Commercial name : Dolby Digital Plus
    Codec ID : A_EAC3
    Duration : 1 h 31 min
    Bit rate mode : Constant
    Bit rate : 384 kb/s
    Channel(s) : 6 channels
    Channel layout : L R C LFE Ls Rs
    Sampling rate : 48.0 kHz
    Frame rate : 31.250 FPS (1536 SPF)
    Compression mode : Lossy
    Stream size : 252 MiB (6%)
    Title : E-AC3 English
    Language : English
    Service kind : Complete Main
    Default : Yes
    Forced : No

    Text #1
    ID : 3
    Format : VobSub
    Muxing mode : zlib
    Codec ID : S_VOBSUB
    Codec ID/Info : Picture based subtitle format used on DVDs
    Duration : 1 h 24 min
    Bit rate : 6 809 b/s
    Count of elements : 721
    Stream size : 4.13 MiB (0%)
    Title : Sub Thai 1080p
    Language : Thai
    Default : No
    Forced : No

    Text #2
    ID : 4
    Format : UTF-8
    Codec ID : S_TEXT/UTF8
    Codec ID/Info : UTF-8 Plain Text
    Duration : 1 h 24 min
    Bit rate : 70 b/s
    Count of elements : 721
    Stream size : 43.5 KiB (0%)
    Title : Sub Thai SRT
    Language : Thai
    Default : No
    Forced : No

    Text #3
    ID : 5
    Format : PGS
    Muxing mode : zlib
    Codec ID : S_HDMV/PGS
    Codec ID/Info : Picture based subtitle format used on BDs/HD-DVDs
    Duration : 1 h 24 min
    Bit rate : 19.3 kb/s
    Count of elements : 1442
    Stream size : 11.7 MiB (0%)
    Title : Sub Thai PGS
    Language : Thai
    Default : Yes
    Forced : No

    Text #4
    ID : 6
    Format : UTF-8
    Codec ID : S_TEXT/UTF8
    Codec ID/Info : UTF-8 Plain Text
    Duration : 1 h 25 min
    Bit rate : 29 b/s
    Count of elements : 738
    Stream size : 18.5 KiB (0%)
    Title : Sub English SRT
    Language : English
    Default : No
    Forced : No






    4.04 GB
    http://www.filecondo.com/dl.php?f=Lb989e1M4Y4p
    1.76 GB
    http://www.filecondo.com/dl.php?f=x631e81M4Y5D

  2. The Following 2 Users Say Thank You to Duckload.us For This Useful Post:

    jackjangri (07-20-2021), noi54 (07-20-2021)

  3. #2
    Senior Member
    Ѥ
    Jun 2011
    ʵ
    262
    Thanks
    415
    Thanked 40 Times in 29 Posts
    thank you...

  4. #3
    Senior Member
    Ѥ
    Jul 2012
    ʵ
    7,625
    Thanks
    0
    Thanked 0 Times in 0 Posts
    ͺسҡ

  5. #4
    Senior Member
    Ѥ
    Jul 2013
    ʵ
    2,517
    Thanks
    0
    Thanked 0 Times in 0 Posts
    ͺسѺ

+ ͺѺз

šз

Users Browsing this Thread

㹢й 1 ҹ١з. (0 Ҫԡ 1 )

     

ʵͤ

  • ҹ ö 駡з
  • ҹ ö ͺз
  • ҹ ö
  • ҹ ö 䢢ͤʵ