+ ตอบกลับกระทู้
สรุปผลการค้นหา 1 ถึง 3 จากทั้งหมด 3
  1. #1
    Administrators รูปส่วนตัว Duckload.us
    สมัครเมื่อ
    Dec 2010
    โพสต์
    129,844
    Thanks
    7
    Thanked 133,711 Times in 59,209 Posts

    Lightbulb The Forever Purge 2021 1080p WEBRip DD5 1 x264 SUBไทย อนันต์ โพธิสูง [พากย์:ENG][SUB:ไทย,Eng][1080p]



    เรื่องย่อหนัง
    กฎทั้งหมดจะถูกทำลายเมื่อพวกนอกกฎหมายตัดสินใจที่จะไ ม่หยุดคืนล้างบาปประจำปีเมื่อถึงรุ่งสาง และมันควรดำเนินต่อไปใน The Forever Purge คืนอำมหิต: อำมหิตไม่หยุดฆ่า จากความสำเร็จของ The First Purge ที่ออกฉายในปี 2018 แฟรนไชส์นี้ ได้กลายเป็นภาพยนตร์สุดสะพรึงคอนเซ็ปต์ล้ำ
    โดยในภาคนี้ มีกลุ่มสมาชิกใต้ดินที่ไม่ได้พึงพอใจกับอนาธิปไตยและ การเข่นฆ่าในเวลาเพียงคืนเดียว ตัดสินใจที่จะโจมตีอเมริกาผ่านการทำร้ายรุนแรงที่ไม่ จบสิ้น ไม่มีใครปลอดภัยอีกต่อไป อเดล่า (อนา เดอ ลา เรเกร่า จาก Cowboys & Aliens) และ ฮวน (เทโนช ฮูเอตา จาก Days of Grace) สามีของเธออาศัยอยู่ในเท็กซัส ฮวนทำงานที่ไร่กับครอบครัวเศรษฐีทัคเกอร์ เขาเป็นที่ถูกใจของหัวหน้าครอบครัวอย่าง เคเล็บ (วิลล์ แพ็ทตัน จาก Halloween) แต่เขากลับก็ถูกลูกชายของเคเล็บอย่าง ดีแลน (จอช ลูคัส จาก Ford v Ferrari) อิจฉาริษยา

    Format : Matroska
    Format version : Version 4
    File size : 5.07 GiB
    Duration : 1 h 43 min
    Overall bit rate : 7 009 kb/s
    Movie name : The Forever Purge (2021)(1080p).th @Burin
    Encoded date : UTC 2021-07-17 20:12:13
    Writing application : mkvmerge v56.0.0 ('Strasbourg / St. Denis') 32-bit
    Writing library : libebml v1.4.2 + libmatroska v1.6.4

    Video
    ID : 1
    Format : AVC
    Format/Info : Advanced Video Codec
    Format profile : [email protected]
    Format settings : CABAC / 4 Ref Frames
    Format settings, CABAC : Yes
    Format settings, Reference frames : 4 frames
    Codec ID : V_MPEG4/ISO/AVC
    Duration : 1 h 43 min
    Bit rate : 6 623 kb/s
    Width : 1 918 pixels
    Height : 1 038 pixels
    Display aspect ratio : 1.85:1
    Frame rate mode : Constant
    Frame rate : 23.976 (24000/1001) FPS
    Color space : YUV
    Chroma subsampling : 4:2:0
    Bit depth : 8 bits
    Scan type : Progressive
    Bits/(Pixel*Frame) : 0.139
    Stream size : 4.79 GiB (94%)
    Default : Yes
    Forced : No
    Color range : Limited
    Color primaries : BT.709
    Transfer characteristics : BT.709
    Matrix coefficients : BT.709

    Audio
    ID : 2
    Format : AC-3
    Format/Info : Audio Coding 3
    Commercial name : Dolby Digital
    Codec ID : A_AC3
    Duration : 1 h 43 min
    Bit rate mode : Constant
    Bit rate : 384 kb/s
    Channel(s) : 6 channels
    Channel layout : L R C LFE Ls Rs
    Sampling rate : 48.0 kHz
    Frame rate : 31.250 FPS (1536 SPF)
    Compression mode : Lossy
    Stream size : 284 MiB (5%)
    Title : English
    Language : English
    Service kind : Complete Main
    Default : No
    Forced : No

    Text #1
    ID : 3
    Format : UTF-8
    Codec ID : S_TEXT/UTF8
    Codec ID/Info : UTF-8 Plain Text
    Duration : 1 h 30 min
    Bit rate : 2 b/s
    Count of elements : 78
    Stream size : 1.78 KiB (0%)
    Title : English [Forced]
    Language : English
    Default : No
    Forced : Yes

    Text #2
    ID : 4
    Format : UTF-8
    Codec ID : S_TEXT/UTF8
    Codec ID/Info : UTF-8 Plain Text
    Duration : 1 h 43 min
    Bit rate : 65 b/s
    Count of elements : 1770
    Stream size : 49.9 KiB (0%)
    Title : English [SDH]
    Language : English
    Default : No
    Forced : No

    Text #3
    ID : 5
    Format : UTF-8
    Codec ID : S_TEXT/UTF8
    Codec ID/Info : UTF-8 Plain Text
    Duration : 1 h 37 min
    Bit rate : 49 b/s
    Count of elements : 1334
    Stream size : 35.4 KiB (0%)
    Title : English
    Language : English
    Default : No
    Forced : No

    Text #4
    ID : 6
    Format : UTF-8
    Codec ID : S_TEXT/UTF8
    Codec ID/Info : UTF-8 Plain Text
    Duration : 1 h 32 min
    Bit rate : 120 b/s
    Count of elements : 1235
    Stream size : 81.9 KiB (0%)
    Language : Thai
    Default : Yes
    Forced : No





    4.27 GB
    http://www.filecondo.com/dl.php?f=0b30541M56pb
    5.07 GB
    http://www.filecondo.com/dl.php?f=d350d21M56i9

  2. The Following 3 Users Say Thank You to Duckload.us For This Useful Post:

    jackjangri (07-20-2021), noi54 (07-19-2021), Wesker_TOT (07-22-2021)

  3. #2
    Senior Member
    สมัครเมื่อ
    Jun 2011
    โพสต์
    262
    Thanks
    415
    Thanked 40 Times in 29 Posts
    thank you...

  4. #3
    Senior Member
    สมัครเมื่อ
    Dec 2013
    โพสต์
    3,161
    Thanks
    5,077
    Thanked 0 Times in 0 Posts
    ขอบคุณครับ...

+ ตอบกลับกระทู้

ข้อมูลกระทู้

Users Browsing this Thread

ในขณะนี้มี 1 ท่านดูกระทู้อยู่. (0 สมาชิกและ 1 ผู้เยี่ยมชม)

     

กฎการโพสต์ข้อความ

  • ท่าน ไม่สามารถ ตั้งกระทู้ใหม่ได้
  • ท่าน ไม่สามารถ ตอบกระทู้ได้
  • ท่าน ไม่สามารถ แนบไฟล์ได้
  • ท่าน ไม่สามารถ แก้ไขข้อความโพสต์ได้
  • BB code สถานะ เปิด
  • Smilies สถานะ เปิด
  • [IMG] สถานะ เปิด
  • HTML สถานะ ปิด