+ ตอบกลับกระทู้
สรุปผลการค้นหา 1 ถึง 3 จากทั้งหมด 3
  1. #1
    Administrators รูปส่วนตัว Duckload.us
    สมัครเมื่อ
    Dec 2010
    โพสต์
    129,844
    Thanks
    7
    Thanked 133,711 Times in 59,209 Posts

    Lightbulb [จีน]-[2020] Taoist Master : นักพรตจางแห่งหุบเขามังกรพยัคฆ์-WEB-DL.H.264.1080p. [Modified]-[Soundtrack บรรยายไทย]



    Zhang Daoling received a letter of help from his friend Wen, an adult, and took his disciple Wang Chang to Bashu. However, he found his friend was dead and was involved in a terrifying conspiracy. Zhang Daoling insisted on his own heart and was not fooled by foreign objects. Eventually, he stopped the evil sacrificial activities of the local evil organizations to ruin the people and educated the local people.

    Format : Matroska
    Format version : Version 4 / Version 2
    File size : 5.31 GiB
    Duration : 1 h 31 min
    Overall bit rate : 8 294 kb/s
    Encoded date : UTC 2021-07-19 12:18:27
    Writing application : mkvmerge v8.1.0 ('Psychedelic Postcard') 32bit
    Writing library : libebml v1.3.1 + libmatroska v1.4.2 / Lavf58.20.100
    SUMMARY : FLTTH (Fu Li To The Home)

    Video
    ID : 1
    Format : AVC
    Format/Info : Advanced Video Codec
    Format profile : [email protected]
    Format settings : CABAC / 4 Ref Frames
    Format settings, CABAC : Yes
    Format settings, ReFrames : 4 frames
    Codec ID : V_MPEG4/ISO/AVC
    Duration : 1 h 31 min
    Bit rate : 8 117 kb/s
    Width : 1 920 pixels
    Height : 816 pixels
    Display aspect ratio : 2.35:1
    Frame rate mode : Constant
    Frame rate : 25.000 FPS
    Color space : YUV
    Chroma subsampling : 4:2:0
    Bit depth : 8 bits
    Scan type : Progressive
    Bits/(Pixel*Frame) : 0.207
    Stream size : 5.20 GiB (98%)
    Title : [2020] Taoist Master - นักพรตจางแห่งหุบเขามังกรพยัคฆ์.WEB-DL.1080p.H264.AAC-(CrazyMovie)
    Writing library : x264 core 157 r2935 545de2f
    Encoding settings : cabac=1 / ref=3 / deblock=1:0:0 / analyse=0x1:0x111 / me=hex / subme=7 / psy=1 / psy_rd=1.00:0.00 / mixed_ref=1 / me_range=16 / chroma_me=1 / trellis=1 / 8x8dct=0 / cqm=0 / deadzone=21,11 / fast_pskip=1 / chroma_qp_offset=-2 / threads=6 / lookahead_threads=1 / sliced_threads=0 / nr=0 / decimate=1 / interlaced=0 / bluray_compat=0 / constrained_intra=0 / bframes=3 / b_pyramid=2 / b_adapt=1 / b_bias=0 / direct=1 / weightb=1 / open_gop=0 / weightp=2 / keyint=250 / keyint_min=25 / scenecut=40 / intra_refresh=0 / rc_lookahead=40 / rc=crf / mbtree=1 / crf=14.0 / qcomp=0.60 / qpmin=0 / qpmax=69 / qpstep=4 / vbv_maxrate=20000 / vbv_bufsize=25000 / crf_max=0.0 / nal_hrd=none / filler=0 / ip_ratio=1.40 / aq=1:1.00
    Language : Chinese
    Default : Yes
    Forced : No
    Color range : Limited
    Color primaries : BT.709
    Transfer characteristics : BT.709
    Matrix coefficients : BT.709

    Audio
    ID : 2
    Format : AAC
    Format/Info : Advanced Audio Codec
    Format profile : LC
    Codec ID : A_AAC-2
    Duration : 1 h 31 min
    Bit rate : 161 kb/s
    Channel(s) : 2 channels
    Channel positions : Front: L R
    Sampling rate : 44.1 kHz
    Frame rate : 43.066 FPS (1024 SPF)
    Compression mode : Lossy
    Delay relative to video : -23 ms
    Stream size : 106 MiB (2%)
    Title : Mandarin : 2.0
    Language : Chinese
    Default : Yes
    Forced : No

    Text #1
    ID : 3
    Format : PGS
    Muxing mode : zlib
    Codec ID : S_HDMV/PGS
    Codec ID/Info : Picture based subtitle format used on BDs/HD-DVDs
    Duration : 1 h 28 min
    Bit rate : 12.6 kb/s
    Count of elements : 2262
    Stream size : 8.01 MiB (0%)
    Title : Thai PGS Yellow (CrazyMovie)
    Language : Thai
    Default : Yes
    Forced : No

    Text #2
    ID : 4
    Format : ASS
    Codec ID : S_TEXT/ASS
    Codec ID/Info : Advanced Sub Station Alpha
    Duration : 1 h 28 min
    Bit rate : 146 b/s
    Count of elements : 1131
    Compression mode : Lossless
    Stream size : 95.1 KiB (0%)
    Title : Thai SSA
    Language : Thai
    Default : No
    Forced : No

    Text #3
    ID : 5
    Format : ASS
    Codec ID : S_TEXT/ASS
    Codec ID/Info : Advanced Sub Station Alpha
    Duration : 1 h 27 min
    Bit rate : 72 b/s
    Count of elements : 1218
    Compression mode : Lossless
    Stream size : 46.5 KiB (0%)
    Title : Simplified Chinese (簡 體 中 文 )
    Language : Chinese
    Default : No
    Forced : No

    Text #4
    ID : 6
    Format : ASS
    Codec ID : S_TEXT/ASS
    Codec ID/Info : Advanced Sub Station Alpha
    Duration : 1 h 27 min
    Bit rate : 72 b/s
    Count of elements : 1218
    Compression mode : Lossless
    Stream size : 46.5 KiB (0%)
    Title : Simplified Chinese (簡 體 中 文 )
    Language : Chinese
    Default : No
    Forced : No

    Text #5
    ID : 7
    Format : ASS
    Codec ID : S_TEXT/ASS
    Codec ID/Info : Advanced Sub Station Alpha
    Duration : 1 h 28 min
    Bit rate : 78 b/s
    Count of elements : 1045
    Compression mode : Lossless
    Stream size : 51.0 KiB (0%)
    Title : English (英 语 )
    Language : English
    Default : No
    Forced : No

    Text #6
    ID : 8
    Format : ASS
    Codec ID : S_TEXT/ASS
    Codec ID/Info : Advanced Sub Station Alpha
    Duration : 1 h 28 min
    Bit rate : 81 b/s
    Count of elements : 1068
    Compression mode : Lossless
    Stream size : 52.8 KiB (0%)
    Title : Indonesian
    Language : Indonesian
    Default : No
    Forced : No

    Text #7
    ID : 9
    Format : ASS
    Codec ID : S_TEXT/ASS
    Codec ID/Info : Advanced Sub Station Alpha
    Duration : 1 h 28 min
    Bit rate : 75 b/s
    Count of elements : 996
    Compression mode : Lossless
    Stream size : 49.0 KiB (0%)
    Title : Malay
    Language : Malay
    Default : No
    Forced : No

    Text #8
    ID : 10
    Format : ASS
    Codec ID : S_TEXT/ASS
    Codec ID/Info : Advanced Sub Station Alpha
    Duration : 1 h 28 min
    Bit rate : 96 b/s
    Count of elements : 1239
    Compression mode : Lossless
    Stream size : 62.9 KiB (0%)
    Title : Vietnamese
    Language : Vietnamese
    Default : No
    Forced : No

    Text #9
    ID : 11
    Format : ASS
    Codec ID : S_TEXT/ASS
    Codec ID/Info : Advanced Sub Station Alpha
    Duration : 1 h 31 min
    Bit rate : 86 b/s
    Count of elements : 1252
    Compression mode : Lossless
    Stream size : 57.6 KiB (0%)
    Title : Korean
    Language : Korean
    Default : No
    Forced : No

    Text #10
    ID : 12
    Format : ASS
    Codec ID : S_TEXT/ASS
    Codec ID/Info : Advanced Sub Station Alpha
    Duration : 1 h 28 min
    Bit rate : 83 b/s
    Count of elements : 1177
    Compression mode : Lossless
    Stream size : 54.2 KiB (0%)
    Title : Spanish
    Language : Spanish
    Default : No
    Forced : No





    http://www.filecondo.com/dl.php?f=Ref0d61M5IU5

  2. #2
    Senior Member
    สมัครเมื่อ
    Jun 2012
    โพสต์
    1,410
    Thanks
    0
    Thanked 1 Time in 1 Post
    ขอบคุณครับ

  3. #3
    Senior Member
    สมัครเมื่อ
    Jul 2013
    โพสต์
    2,517
    Thanks
    0
    Thanked 0 Times in 0 Posts
    หนังจีนสมัยใหม่ เน้น cg แต่ขาดสเน่ห์ไปเยอะเลย

+ ตอบกลับกระทู้

ข้อมูลกระทู้

Users Browsing this Thread

ในขณะนี้มี 1 ท่านดูกระทู้อยู่. (0 สมาชิกและ 1 ผู้เยี่ยมชม)

     

กฎการโพสต์ข้อความ

  • ท่าน ไม่สามารถ ตั้งกระทู้ใหม่ได้
  • ท่าน ไม่สามารถ ตอบกระทู้ได้
  • ท่าน ไม่สามารถ แนบไฟล์ได้
  • ท่าน ไม่สามารถ แก้ไขข้อความโพสต์ได้
  • BB code สถานะ เปิด
  • Smilies สถานะ เปิด
  • [IMG] สถานะ เปิด
  • HTML สถานะ ปิด