+ ตอบกลับกระทู้
สรุปผลการค้นหา 1 ถึง 4 จากทั้งหมด 4
  1. #1
    Administrators รูปส่วนตัว Duckload.us
    สมัครเมื่อ
    Dec 2010
    โพสต์
    129,844
    Thanks
    7
    Thanked 133,711 Times in 59,209 Posts

    Lightbulb [ญี่ปุ่น]-[NETFLIX] Pretty Guardian Sailor Moon Eternal The Movie Part 1-2 (2021) พริตตี้ การ์เดี้ยน เซเลอร์ มูน อีเทอร์นัล เดอะ มูฟวี่-WEB-DL.EAC-3.1080p. [rip from Master]-[พากย์ญี่ปุ่น 5.1 ไทย 5.1 บรรยายไทย-อังกฤษ]




    เมื่อพลังแห่งความมืดปกคลุมโลกหลังเกิดสุริยุปราคาเต ็มดวง เหล่าอัศวินเซเลอร์ที่กระจัดกระจายต้องกลับมารวมตัวก ันเพื่อนำแสงสว่างมาสู่โลกอีกครั้ง


    Format : Matroska
    Format version : Version 4
    File size : 2.33 GiB
    Duration : 1 h 21 min
    Overall bit rate : 4 092 kb/s
    Encoded date : UTC 2021-06-03 11:10:55
    Writing application : mkvmerge v57.0.0 ('Till The End') 64-bit
    Writing library : libebml v1.4.2 + libmatroska v1.6.4

    Video
    ID : 1
    Format : AVC
    Format/Info : Advanced Video Codec
    Format profile : [email protected]
    Format settings : CABAC / 4 Ref Frames
    Format settings, CABAC : Yes
    Format settings, Reference : 4 frames
    Codec ID : V_MPEG4/ISO/AVC
    Duration : 1 h 21 min
    Bit rate : 2 729 kb/s
    Width : 1 920 pixels
    Height : 1 080 pixels
    Display aspect ratio : 16:9
    Frame rate mode : Constant
    Frame rate : 23.976 (24000/1001) FPS
    Color space : YUV
    Chroma subsampling : 4:2:0
    Bit depth : 8 bits
    Scan type : Progressive
    Bits/(Pixel*Frame) : 0.055
    Stream size : 1.55 GiB (67%)
    Language : Japanese
    Default : Yes
    Forced : No

    Audio #1
    ID : 2
    Format : E-AC-3
    Format/Info : Enhanced AC-3
    Commercial name : Dolby Digital Plus
    Codec ID : A_EAC3
    Duration : 1 h 21 min
    Bit rate mode : Constant
    Bit rate : 640 kb/s
    Channel(s) : 6 channels
    Channel layout : L R C LFE Ls Rs
    Sampling rate : 48.0 kHz
    Frame rate : 31.250 FPS (1536 SPF)
    Compression mode : Lossy
    Delay relative to video : -83 ms
    Stream size : 372 MiB (16%)
    Title : E-AC3 Japanese
    Language : Japanese
    Service kind : Complete Main
    Default : Yes
    Forced : No

    Audio #2
    ID : 3
    Format : E-AC-3
    Format/Info : Enhanced AC-3
    Commercial name : Dolby Digital Plus
    Codec ID : A_EAC3
    Duration : 1 h 21 min
    Bit rate mode : Constant
    Bit rate : 640 kb/s
    Channel(s) : 6 channels
    Channel layout : L R C LFE Ls Rs
    Sampling rate : 48.0 kHz
    Frame rate : 31.250 FPS (1536 SPF)
    Compression mode : Lossy
    Delay relative to video : -83 ms
    Stream size : 372 MiB (16%)
    Title : E-AC3 Thai
    Language : Thai
    Service kind : Complete Main
    Default : No
    Forced : No

    Text #1
    ID : 4
    Format : VobSub
    Muxing mode : zlib
    Codec ID : S_VOBSUB
    Codec ID/Info : Picture based subtitle format used on DVDs
    Duration : 1 h 20 min
    Bit rate : 15.2 kb/s
    Count of elements : 1460
    Stream size : 8.69 MiB (0%)
    Title : Sub Thai 1080p
    Language : Thai
    Default : No
    Forced : No

    Text #2
    ID : 5
    Format : UTF-8
    Codec ID : S_TEXT/UTF8
    Codec ID/Info : UTF-8 Plain Text
    Duration : 1 h 20 min
    Bit rate : 157 b/s
    Count of elements : 1460
    Stream size : 92.3 KiB (0%)
    Title : Sub Thai SRT
    Language : Thai
    Default : No
    Forced : No

    Text #3
    ID : 6
    Format : PGS
    Muxing mode : zlib
    Codec ID : S_HDMV/PGS
    Codec ID/Info : Picture based subtitle format used on BDs/HD-DVDs
    Duration : 1 h 20 min
    Bit rate : 43.3 kb/s
    Count of elements : 2920
    Stream size : 24.8 MiB (1%)
    Title : Sub Thai PGS
    Language : Thai
    Default : No
    Forced : No

    Text #4
    ID : 7
    Format : PGS
    Muxing mode : zlib
    Codec ID : S_HDMV/PGS
    Codec ID/Info : Picture based subtitle format used on BDs/HD-DVDs
    Duration : 1 h 20 min
    Bit rate : 75.3 kb/s
    Count of elements : 2920
    Stream size : 43.1 MiB (2%)
    Title : Sub Thai PGS NETFLIX
    Language : Thai
    Default : Yes
    Forced : No

    Text #5
    ID : 8
    Format : UTF-8
    Codec ID : S_TEXT/UTF8
    Codec ID/Info : UTF-8 Plain Text
    Duration : 1 h 19 min
    Bit rate : 66 b/s
    Count of elements : 1448
    Stream size : 38.8 KiB (0%)
    Title : Sub English SRT
    Language : English
    Default : No
    Forced : No






    มาช้า ตกหล่นครับ ขออภัย
    1 http://www.filecondo.com/dl.php?f=W76d931LQhA2
    2 http://www.filecondo.com/dl.php?f=J8206e1LQhB3

  2. The Following 3 Users Say Thank You to Duckload.us For This Useful Post:

    jackjangri (07-23-2021), virusring (07-22-2021), Wesker_TOT (07-22-2021)

  3. #2
    Senior Member
    สมัครเมื่อ
    Dec 2013
    โพสต์
    3,161
    Thanks
    5,077
    Thanked 0 Times in 0 Posts
    ขอบคุณครับ...

  4. #3
    Senior Member
    สมัครเมื่อ
    Jun 2011
    โพสต์
    262
    Thanks
    415
    Thanked 40 Times in 29 Posts
    ขอบคุณครับ

  5. #4
    Senior Member
    สมัครเมื่อ
    Jul 2013
    โพสต์
    2,517
    Thanks
    0
    Thanked 0 Times in 0 Posts
    ขอบคุณครับ

+ ตอบกลับกระทู้

ข้อมูลกระทู้

Users Browsing this Thread

ในขณะนี้มี 1 ท่านดูกระทู้อยู่. (0 สมาชิกและ 1 ผู้เยี่ยมชม)

     

กฎการโพสต์ข้อความ

  • ท่าน ไม่สามารถ ตั้งกระทู้ใหม่ได้
  • ท่าน ไม่สามารถ ตอบกระทู้ได้
  • ท่าน ไม่สามารถ แนบไฟล์ได้
  • ท่าน ไม่สามารถ แก้ไขข้อความโพสต์ได้
  • BB code สถานะ เปิด
  • Smilies สถานะ เปิด
  • [IMG] สถานะ เปิด
  • HTML สถานะ ปิด