+ ตอบกลับกระทู้
สรุปผลการค้นหา 1 ถึง 4 จากทั้งหมด 4
  1. #1
    Administrators รูปส่วนตัว Duckload.us
    สมัครเมื่อ
    Dec 2010
    โพสต์
    129,665
    Thanks
    7
    Thanked 133,640 Times in 59,176 Posts

    Thumbs up [ฝรั่ง]-[NETFLIX] Chernobyl 1986 (2021) เชอร์โนบิล 1986-WEB-DL.EAC-3.1080p. [Netflix (web-dl)]-[พากย์รัสเซีย 5.1 อังกฤษ 5.1 บรรยายไทย-อังกฤษ]




    อเล็กเซย์ เจ้าหน้าที่ดับเพลิงเตรียมเริ่มต้นชีวิตใหม่หลังได้ก ลับมาพบกับคนรักที่เคยพลัดพราก แต่วิกฤติที่เชียร์โนบิลทำให้เขาต้องกลับไปเสี่ยงตาย ท่ามกลางหายนะ

    Format : Matroska
    Format version : Version 4
    File size : 5.19 GiB
    Duration : 2 h 16 min
    Overall bit rate : 5 458 kb/s
    Encoded date : UTC 2021-07-21 12:45:15
    Writing application : mkvmerge v59.0.0 ('Shining Star') 64-bit
    Writing library : libebml v1.4.2 + libmatroska v1.6.4

    Video
    ID : 1
    Format : AVC
    Format/Info : Advanced Video Codec
    Format profile : [email protected]
    Format settings : CABAC / 3 Ref Frames
    Format settings, CABAC : Yes
    Format settings, Reference : 3 frames
    Codec ID : V_MPEG4/ISO/AVC
    Duration : 2 h 16 min
    Bit rate : 4 135 kb/s
    Width : 1 920 pixels
    Height : 804 pixels
    Display aspect ratio : 2.40:1
    Frame rate mode : Constant
    Frame rate : 24.000 FPS
    Color space : YUV
    Chroma subsampling : 4:2:0
    Bit depth : 8 bits
    Scan type : Progressive
    Bits/(Pixel*Frame) : 0.112
    Stream size : 3.93 GiB (76%)
    Language : Russian
    Default : Yes
    Forced : No

    Audio #1
    ID : 2
    Format : E-AC-3
    Format/Info : Enhanced AC-3
    Commercial name : Dolby Digital Plus
    Codec ID : A_EAC3
    Duration : 2 h 16 min
    Bit rate mode : Constant
    Bit rate : 640 kb/s
    Channel(s) : 6 channels
    Channel layout : L R C LFE Ls Rs
    Sampling rate : 48.0 kHz
    Frame rate : 31.250 FPS (1536 SPF)
    Compression mode : Lossy
    Stream size : 624 MiB (12%)
    Title : E-AC3 Russian
    Language : Russian
    Service kind : Complete Main
    Default : Yes
    Forced : No

    Audio #2
    ID : 3
    Format : E-AC-3
    Format/Info : Enhanced AC-3
    Commercial name : Dolby Digital Plus
    Codec ID : A_EAC3
    Duration : 2 h 16 min
    Bit rate mode : Constant
    Bit rate : 640 kb/s
    Channel(s) : 6 channels
    Channel layout : L R C LFE Ls Rs
    Sampling rate : 48.0 kHz
    Frame rate : 31.250 FPS (1536 SPF)
    Compression mode : Lossy
    Stream size : 624 MiB (12%)
    Title : E-AC3 English
    Language : English
    Service kind : Complete Main
    Default : No
    Forced : No

    Text #1
    ID : 4
    Format : VobSub
    Muxing mode : zlib
    Codec ID : S_VOBSUB
    Codec ID/Info : Picture based subtitle format used on DVDs
    Duration : 2 h 15 min
    Bit rate : 7 744 b/s
    Count of elements : 1190
    Stream size : 7.51 MiB (0%)
    Title : Sub Thai 1080p
    Language : Thai
    Default : No
    Forced : No

    Text #2
    ID : 5
    Format : UTF-8
    Codec ID : S_TEXT/UTF8
    Codec ID/Info : UTF-8 Plain Text
    Duration : 2 h 15 min
    Bit rate : 79 b/s
    Count of elements : 1190
    Stream size : 79.1 KiB (0%)
    Title : Sub Thai SRT
    Language : Thai
    Default : No
    Forced : No

    Text #3
    ID : 6
    Format : PGS
    Muxing mode : zlib
    Codec ID : S_HDMV/PGS
    Codec ID/Info : Picture based subtitle format used on BDs/HD-DVDs
    Duration : 2 h 15 min
    Bit rate : 21.9 kb/s
    Count of elements : 2380
    Stream size : 21.3 MiB (0%)
    Title : Sub Thai PGS
    Language : Thai
    Default : No
    Forced : No

    Text #4
    ID : 7
    Format : PGS
    Muxing mode : zlib
    Codec ID : S_HDMV/PGS
    Codec ID/Info : Picture based subtitle format used on BDs/HD-DVDs
    Duration : 2 h 15 min
    Bit rate : 38.3 kb/s
    Count of elements : 2380
    Stream size : 37.1 MiB (1%)
    Title : Sub Thai PGS NETFLIX
    Language : Thai
    Default : Yes
    Forced : No

    Text #5
    ID : 8
    Format : UTF-8
    Codec ID : S_TEXT/UTF8
    Codec ID/Info : UTF-8 Plain Text
    Duration : 2 h 9 min
    Bit rate : 34 b/s
    Count of elements : 1037
    Stream size : 32.9 KiB (0%)
    Title : Sub English SRT
    Language : English
    Default : No
    Forced : No






    https://www.cornfile.com/gabo1n63017h
    http://www.filecondo.com/dl.php?f=Feb19e1M6uRN

  2. The Following 2 Users Say Thank You to Duckload.us For This Useful Post:

    jackjangri (07-23-2021), jangska (07-25-2021)

  3. #2
    Senior Member
    สมัครเมื่อ
    Jun 2011
    โพสต์
    256
    Thanks
    409
    Thanked 40 Times in 29 Posts
    thank you...

  4. #3
    Senior Member
    สมัครเมื่อ
    Jul 2013
    โพสต์
    2,505
    Thanks
    0
    Thanked 0 Times in 0 Posts
    ขอบคุณครับ

  5. #4
    Member
    สมัครเมื่อ
    Aug 2015
    โพสต์
    37
    Thanks
    60
    Thanked 0 Times in 0 Posts
    คนละเรื่องกับที่ฉายhboใช่มั้ยครับ
    ขแงhboจะเป็นซีรียส์5ตอนจบ

+ ตอบกลับกระทู้

ข้อมูลกระทู้

Users Browsing this Thread

ในขณะนี้มี 1 ท่านดูกระทู้อยู่. (0 สมาชิกและ 1 ผู้เยี่ยมชม)

     

กฎการโพสต์ข้อความ

  • ท่าน ไม่สามารถ ตั้งกระทู้ใหม่ได้
  • ท่าน ไม่สามารถ ตอบกระทู้ได้
  • ท่าน ไม่สามารถ แนบไฟล์ได้
  • ท่าน ไม่สามารถ แก้ไขข้อความโพสต์ได้
  • BB code สถานะ เปิด
  • Smilies สถานะ เปิด
  • [IMG] สถานะ เปิด
  • HTML สถานะ ปิด