+ ตอบกลับกระทู้
สรุปผลการค้นหา 1 ถึง 6 จากทั้งหมด 6
  1. #1
    Administrators รูปส่วนตัว Duckload.us
    สมัครเมื่อ
    Dec 2010
    โพสต์
    131,531
    Thanks
    7
    Thanked 135,192 Times in 59,795 Posts

    Lightbulb [เกาหลี]-[NETFLIX] Kingdom: Ashin of the North (2021) ผีดิบคลั่ง บัลลังก์เดือด: อาชินแห่งเผ่าเหนือ-WEB-DL.EAC-3.Atmos.1080p. [Netflix (web-dl)]-[พากย์เกาหลี Atmos 5.1 ไทย 5.1 บรรยายไทย-อังกฤษ]




    ในตอนพิเศษของ ผีดิบคลั่ง บัลลังก์เดือด โศกนาฏกรรม การทรยศหักหลัง และการค้นพบปริศนาลึกลับได้สร้างรอยแค้นให้หญิงที่สู ญเสียครอบครัวและเผ่าของตัวเองไป

    Format : Matroska
    Format version : Version 4
    File size : 4.02 GiB
    Duration : 1 h 33 min
    Overall bit rate : 6 140 kb/s
    Encoded date : UTC 2021-07-23 12:07:37
    Writing application : mkvmerge v59.0.0 ('Shining Star') 64-bit
    Writing library : libebml v1.4.2 + libmatroska v1.6.4

    Video
    ID : 1
    Format : AVC
    Format/Info : Advanced Video Codec
    Format profile : [email protected]
    Format settings : CABAC / 3 Ref Frames
    Format settings, CABAC : Yes
    Format settings, Reference : 3 frames
    Codec ID : V_MPEG4/ISO/AVC
    Duration : 1 h 33 min
    Bit rate : 4 704 kb/s
    Width : 1 920 pixels
    Height : 960 pixels
    Display aspect ratio : 2.000
    Frame rate mode : Constant
    Frame rate : 23.976 (24000/1001) FPS
    Color space : YUV
    Chroma subsampling : 4:2:0
    Bit depth : 8 bits
    Scan type : Progressive
    Bits/(Pixel*Frame) : 0.106
    Stream size : 3.08 GiB (77%)
    Language : Korean
    Default : Yes
    Forced : No

    Audio #1
    ID : 2
    Format : E-AC-3 JOC
    Format/Info : Enhanced AC-3 with Joint Object Coding
    Commercial name : Dolby Digital Plus with Dolby Atmos
    Codec ID : A_EAC3
    Duration : 1 h 33 min
    Bit rate mode : Constant
    Bit rate : 768 kb/s
    Channel(s) : 6 channels
    Channel layout : L R C LFE Ls Rs
    Sampling rate : 48.0 kHz
    Frame rate : 31.250 FPS (1536 SPF)
    Compression mode : Lossy
    Stream size : 515 MiB (13%)
    Title : E-AC3 Atmos Korean
    Language : Korean
    Service kind : Complete Main
    Default : Yes
    Forced : No
    Complexity index : 16
    Number of dynamic objects : 15
    Bed channel count : 1 channel
    Bed channel configuration : LFE

    Audio #2
    ID : 3
    Format : E-AC-3
    Format/Info : Enhanced AC-3
    Commercial name : Dolby Digital Plus
    Codec ID : A_EAC3
    Duration : 1 h 33 min
    Bit rate mode : Constant
    Bit rate : 640 kb/s
    Channel(s) : 6 channels
    Channel layout : L R C LFE Ls Rs
    Sampling rate : 48.0 kHz
    Frame rate : 31.250 FPS (1536 SPF)
    Compression mode : Lossy
    Stream size : 429 MiB (10%)
    Title : E-AC3 Thai
    Language : Thai
    Service kind : Complete Main
    Default : No
    Forced : No

    Text #1
    ID : 4
    Format : VobSub
    Muxing mode : zlib
    Codec ID : S_VOBSUB
    Codec ID/Info : Picture based subtitle format used on DVDs
    Duration : 1 h 32 min
    Bit rate : 4 960 b/s
    Count of elements : 432
    Stream size : 3.28 MiB (0%)
    Title : Sub Thai 1080p
    Language : Thai
    Default : No
    Forced : No

    Text #2
    ID : 5
    Format : UTF-8
    Codec ID : S_TEXT/UTF8
    Codec ID/Info : UTF-8 Plain Text
    Duration : 1 h 32 min
    Bit rate : 52 b/s
    Count of elements : 432
    Stream size : 35.5 KiB (0%)
    Title : Sub Thai SRT
    Language : Thai
    Default : No
    Forced : No

    Text #3
    ID : 6
    Format : PGS
    Muxing mode : zlib
    Codec ID : S_HDMV/PGS
    Codec ID/Info : Picture based subtitle format used on BDs/HD-DVDs
    Duration : 1 h 32 min
    Bit rate : 13.9 kb/s
    Count of elements : 864
    Stream size : 9.23 MiB (0%)
    Title : Sub Thai PGS
    Language : Thai
    Default : No
    Forced : No

    Text #4
    ID : 7
    Format : PGS
    Muxing mode : zlib
    Codec ID : S_HDMV/PGS
    Codec ID/Info : Picture based subtitle format used on BDs/HD-DVDs
    Duration : 1 h 32 min
    Bit rate : 24.3 kb/s
    Count of elements : 864
    Stream size : 16.1 MiB (0%)
    Title : Sub Thai PGS NETFLIX
    Language : Thai
    Default : Yes
    Forced : No

    Text #5
    ID : 8
    Format : UTF-8
    Codec ID : S_TEXT/UTF8
    Codec ID/Info : UTF-8 Plain Text
    Duration : 1 h 32 min
    Bit rate : 19 b/s
    Count of elements : 429
    Stream size : 13.2 KiB (0%)
    Language : English
    Default : No
    Forced : No







    Download:cornfile
    Kingdom Ashin of the North (2021) ผีดิบคลั่ง บัลลังก์เดือด อาชินแห่งเผ่าเหนือ.1080p.mkv - 5.1 GB
    Kingdom Ashin of the North (2021).mkv - 4.0 GB
    Kingdom.Ashin.of.the.North.2021.1080p.NF.WEB-DL.DDP5.1.Atmos.x264-KRP.mkv - 8.9 GB
    Kingdom.Ashin.of.the.North.2021.KOREAN.1080p.NF.WE B-DL.x265.10bit.HDR.DDP5.1.Atmos-MESSI.mkv - 4.8 GB
    Download:filecondo
    4.02 GB
    http://www.filecondo.com/dl.php?f=9b950e1M6UZL
    5.44 GB
    http://www.filecondo.com/dl.php?f=q3cc0e1M6VqE
    8.87 GB
    http://www.filecondo.com/dl.php?f=Ob71c81M6SYQ
    4.77 GB
    http://www.filecondo.com/dl.php?f=14980f1M6T4a

  2. The Following 8 Users Say Thank You to Duckload.us For This Useful Post:

    B-Faii (08-26-2021), bigbang06 (07-27-2021), jangska (07-23-2021), nananass (07-24-2021), noi54 (07-26-2021), sawara (07-25-2021), Wesker_TOT (07-24-2021), whiteherbie (08-07-2021)

  3. #2
    Senior Member
    สมัครเมื่อ
    Dec 2013
    โพสต์
    3,182
    Thanks
    5,096
    Thanked 0 Times in 0 Posts
    ขอบคุณครับ...

  4. #3
    Member
    สมัครเมื่อ
    Sep 2017
    โพสต์
    37
    Thanks
    30
    Thanked 0 Times in 0 Posts
    Thank! Krub

  5. #4
    Senior Member
    สมัครเมื่อ
    Dec 2013
    โพสต์
    494
    Thanks
    430
    Thanked 0 Times in 0 Posts
    ขอบคุณครับบ

  6. #5
    Senior Member
    สมัครเมื่อ
    Dec 2011
    โพสต์
    2,584
    Thanks
    139
    Thanked 0 Times in 0 Posts
    ขอบคุณมากค่ะ

  7. #6
    Senior Member รูปส่วนตัว B-Faii
    สมัครเมื่อ
    Oct 2012
    ที่อยู่
    THAILAND
    โพสต์
    1,344
    Thanks
    1,559
    Thanked 0 Times in 0 Posts
    ขอบคุณมากๆเลยจ้าาา

+ ตอบกลับกระทู้

ข้อมูลกระทู้

Users Browsing this Thread

ในขณะนี้มี 1 ท่านดูกระทู้อยู่. (0 สมาชิกและ 1 ผู้เยี่ยมชม)

     

กฎการโพสต์ข้อความ

  • ท่าน ไม่สามารถ ตั้งกระทู้ใหม่ได้
  • ท่าน ไม่สามารถ ตอบกระทู้ได้
  • ท่าน ไม่สามารถ แนบไฟล์ได้
  • ท่าน ไม่สามารถ แก้ไขข้อความโพสต์ได้
  • BB code สถานะ เปิด
  • Smilies สถานะ เปิด
  • [IMG] สถานะ เปิด
  • HTML สถานะ ปิด