On guard! Zhou Fei's sword is created by the essence of his parents: the mother is the blade and the scabbard is the father. Many years ago Zhou Fei's grandfather Li Zhengwei was poisoned to save Duan Jiuniang. The forty-eight fortresses were lost during a surprise attack by the False Emperor. Zhou Fei's mother, Li Jinrong - a young girl at the time - was fierce and reckless, and her sword skills were not yet accomplished. Having lost her family and her father, she went to Liang Shao's strategist Zhou Yitang to ask for help. When Liang Shao refused and Zhou Yitang was ambivalent, Li Jinrong went north alone, determined to assassinate the false emperor.

General
Unique ID : 176708352040002113234436600947821708068 (0x84F0CA68CE65016CBF31BAED7B8B0324)
Complete name : D:[2021] The Unbeatable - 境把並 檠 棍熒籤薦埡.1080p.WEBRip.AAC.H.264-(CrazyMovie).mkv
Format : Matroska
Format version : Version 4 / Version 2
File size : 5.71 GiB
Duration : 1 h 31 min
Overall bit rate : 8 976 kb/s
Encoded date : UTC 2021-07-24 08:40:18
Writing application : mkvmerge v8.1.0 ('Psychedelic Postcard') 32bit
Writing library : libebml v1.3.1 + libmatroska v1.4.2 / Lavf58.20.100

Video
ID : 1
Format : AVC
Format/Info : Advanced Video Codec
Format profile : [email protected]
Format settings : CABAC / 4 Ref Frames
Format settings, CABAC : Yes
Format settings, ReFrames : 4 frames
Codec ID : V_MPEG4/ISO/AVC
Duration : 1 h 31 min
Bit rate : 8 801 kb/s
Width : 1 920 pixels
Height : 800 pixels
Display aspect ratio : 2.40:1
Frame rate mode : Constant
Frame rate : 25.000 FPS
Color space : YUV
Chroma subsampling : 4:2:0
Bit depth : 8 bits
Scan type : Progressive
Bits/(Pixel*Frame) : 0.229
Stream size : 5.60 GiB (98%)
Title : [2021] The Unbeatable - 境把並 檠 棍熒籤薦埡.1080p.WEBRip.AAC.H.264-(CrazyMovie)
Writing library : x264 core 157 r2935 545de2f
Encoding settings : cabac=1 / ref=3 / deblock=1:0:0 / analyse=0x1:0x111 / me=hex / subme=7 / psy=1 / psy_rd=1.00:0.00 / mixed_ref=1 / me_range=16 / chroma_me=1 / trellis=1 / 8x8dct=0 / cqm=0 / deadzone=21,11 / fast_pskip=1 / chroma_qp_offset=-2 / threads=6 / lookahead_threads=1 / sliced_threads=0 / nr=0 / decimate=1 / interlaced=0 / bluray_compat=0 / constrained_intra=0 / bframes=3 / b_pyramid=2 / b_adapt=1 / b_bias=0 / direct=1 / weightb=1 / open_gop=0 / weightp=2 / keyint=250 / keyint_min=25 / scenecut=40 / intra_refresh=0 / rc_lookahead=40 / rc=crf / mbtree=1 / crf=11.0 / qcomp=0.60 / qpmin=0 / qpmax=69 / qpstep=4 / vbv_maxrate=20000 / vbv_bufsize=25000 / crf_max=0.0 / nal_hrd=none / filler=0 / ip_ratio=1.40 / aq=1:1.00
Language : Chinese
Default : Yes
Forced : No
Color range : Limited
Color primaries : BT.709
Transfer characteristics : BT.709
Matrix coefficients : BT.709

Audio
ID : 2
Format : AAC
Format/Info : Advanced Audio Codec
Format profile : LC
Codec ID : A_AAC-2
Duration : 1 h 31 min
Bit rate : 160 kb/s
Channel(s) : 2 channels
Channel positions : Front: L R
Sampling rate : 48.0 kHz
Frame rate : 46.875 FPS (1024 SPF)
Compression mode : Lossy
Delay relative to video : -63 ms
Stream size : 105 MiB (2%)
Title : Mandarin 2.0
Language : Chinese
Default : Yes
Forced : No

Text #1
ID : 3
Format : PGS
Muxing mode : zlib
Codec ID : S_HDMV/PGS
Codec ID/Info : Picture based subtitle format used on BDs/HD-DVDs
Duration : 1 h 25 min
Bit rate : 11.7 kb/s
Count of elements : 1774
Stream size : 7.21 MiB (0%)
Title : Thai Angsana UPC PGS Yellow (CrazyMovie)
Language : Thai
Default : Yes
Forced : No

Text #2
ID : 4
Format : ASS
Codec ID : S_TEXT/ASS
Codec ID/Info : Advanced Sub Station Alpha
Duration : 1 h 25 min
Bit rate : 132 b/s
Count of elements : 887
Compression mode : Lossless
Stream size : 83.4 KiB (0%)
Title : Thai SSA
Language : Thai
Default : No
Forced : No

Text #3
ID : 5
Format : ASS
Codec ID : S_TEXT/ASS
Codec ID/Info : Advanced Sub Station Alpha
Duration : 1 h 25 min
Bit rate : 57 b/s
Count of elements : 859
Compression mode : Lossless
Stream size : 36.3 KiB (0%)
Language : Chinese
Default : No
Forced : No

Text #4
ID : 6
Format : ASS
Codec ID : S_TEXT/ASS
Codec ID/Info : Advanced Sub Station Alpha
Duration : 1 h 25 min
Bit rate : 57 b/s
Count of elements : 859
Compression mode : Lossless
Stream size : 36.3 KiB (0%)
Language : Chinese
Default : No
Forced : No

Text #5
ID : 7
Format : ASS
Codec ID : S_TEXT/ASS
Codec ID/Info : Advanced Sub Station Alpha
Duration : 1 h 25 min
Bit rate : 69 b/s
Count of elements : 885
Compression mode : Lossless
Stream size : 43.9 KiB (0%)
Language : English
Default : No
Forced : No

Text #6
ID : 8
Format : ASS
Codec ID : S_TEXT/ASS
Codec ID/Info : Advanced Sub Station Alpha
Duration : 1 h 25 min
Bit rate : 81 b/s
Count of elements : 885
Compression mode : Lossless
Stream size : 51.2 KiB (0%)
Language : Japanese
Default : No
Forced : No

Text #7
ID : 9
Format : ASS
Codec ID : S_TEXT/ASS
Codec ID/Info : Advanced Sub Station Alpha
Duration : 1 h 25 min
Bit rate : 75 b/s
Count of elements : 885
Compression mode : Lossless
Stream size : 47.7 KiB (0%)
Language : Korean
Default : No
Forced : No

Text #8
ID : 10
Format : ASS
Codec ID : S_TEXT/ASS
Codec ID/Info : Advanced Sub Station Alpha
Duration : 1 h 25 min
Bit rate : 72 b/s
Count of elements : 804
Compression mode : Lossless
Stream size : 45.3 KiB (0%)
Default : No
Forced : No





Download:cornfile
https://www.cornfile.com/2gvefznwubb7
Download:filecondo
http://www.filecondo.com/dl.php?f=gc16c61M7AgT