+ ตอบกลับกระทู้
สรุปผลการค้นหา 1 ถึง 2 จากทั้งหมด 2
  1. #1
    Administrators รูปส่วนตัว Duckload.us
    สมัครเมื่อ
    Dec 2010
    โพสต์
    131,531
    Thanks
    7
    Thanked 135,192 Times in 59,795 Posts

    Thumbs up [เกาหลี]-[2020] Josee - โจเซ่ ชื่อนี้ที่ผมไม่เคยลืม-WEB-DL.H.265.1080p. [Modified]-[Soundtrack บรรยายไทย]



    A small city on the outskirts of Seoul. Young Seok, a university student nearing graduation, comes across a woman in the street who has fallen from her wheelchair and helps her back home. She ends up feeding him a simple meal and he develops a vague curiosity for this woman who introduces herself as José e . From this time on Young Seok occasionally stops by José e's house, receiving free meals and getting to know this woman who reads a lot, has a comprehensive knowledge of whiskey and tells him stories, which he's not sure are true. Gradually, they come to share an unforgettable love.[/SIZE]

    Format : Matroska
    Format version : Version 4 / Version 2
    File size : 3.77 GiB
    Duration : 1 h 56 min
    Overall bit rate : 4 616 kb/s
    Encoded date : UTC 2021-07-26 11:04:34
    Writing application : mkvmerge v8.1.0 ('Psychedelic Postcard') 32bit
    Writing library : libebml v1.3.1 + libmatroska v1.4.2

    Video
    ID : 1
    Format : HEVC
    Format/Info : High Efficiency Video Coding
    Format profile : [email protected]@Main
    Codec ID : V_MPEGH/ISO/HEVC
    Duration : 1 h 56 min
    Bit rate : 4 424 kb/s
    Width : 1 920 pixels
    Height : 1 040 pixels
    Display aspect ratio : 1.85:1
    Frame rate mode : Constant
    Frame rate : 24.000 FPS
    Color space : YUV
    Chroma subsampling : 4:2:0
    Bit depth : 8 bits
    Bits/(Pixel*Frame) : 0.092
    Stream size : 3.61 GiB (96%)
    Title : [2020] José e - โจเซ่ ชื่อนี้ที่ผมไม่เคยลืม.1080p..WEB-DL.AAC.2.0.H.265-(CrazyMovie)
    Language : Korean
    Default : Yes
    Forced : No

    Audio
    ID : 2
    Format : AAC
    Format/Info : Advanced Audio Codec
    Format profile : LC
    Codec ID : A_AAC-2
    Duration : 1 h 56 min
    Bit rate : 192 kb/s
    Channel(s) : 2 channels
    Channel positions : Front: L R
    Sampling rate : 44.1 kHz
    Frame rate : 43.066 FPS (1024 SPF)
    Compression mode : Lossy
    Stream size : 159 MiB (4%)
    Title : Korean
    Language : Korean
    Default : Yes
    Forced : No

    Text #1
    ID : 3
    Format : UTF-8
    Codec ID : S_TEXT/UTF8
    Codec ID/Info : UTF-8 Plain Text
    Duration : 1 h 52 min
    Bit rate : 49 b/s
    Count of elements : 696
    Stream size : 40.4 KiB (0%)
    Language : Thai
    Default : Yes
    Forced : Yes

    Text #2
    ID : 4
    Format : UTF-8
    Codec ID : S_TEXT/UTF8
    Codec ID/Info : UTF-8 Plain Text
    Duration : 1 h 52 min
    Bit rate : 25 b/s
    Count of elements : 703
    Stream size : 21.4 KiB (0%)
    Language : Indonesian
    Default : No
    Forced : No

    Text #3
    ID : 5
    Format : UTF-8
    Codec ID : S_TEXT/UTF8
    Codec ID/Info : UTF-8 Plain Text
    Duration : 1 h 52 min
    Bit rate : 30 b/s
    Count of elements : 697
    Stream size : 25.5 KiB (0%)
    Language : Vietnamese
    Default : No
    Forced : No

    Text #4
    ID : 6
    Format : UTF-8
    Codec ID : S_TEXT/UTF8
    Codec ID/Info : UTF-8 Plain Text
    Duration : 1 h 52 min
    Bit rate : 21 b/s
    Count of elements : 696
    Stream size : 17.6 KiB (0%)
    Language : Chinese
    Default : No
    Forced : No

    Text #5
    ID : 7
    Format : UTF-8
    Codec ID : S_TEXT/UTF8
    Codec ID/Info : UTF-8 Plain Text
    Duration : 1 h 52 min
    Bit rate : 21 b/s
    Count of elements : 696
    Stream size : 17.6 KiB (0%)
    Language : Chinese
    Default : No
    Forced : No

    Text #6
    ID : 8
    Format : UTF-8
    Codec ID : S_TEXT/UTF8
    Codec ID/Info : UTF-8 Plain Text
    Duration : 1 h 52 min
    Bit rate : 24 b/s
    Count of elements : 694
    Stream size : 20.4 KiB (0%)
    Language : Malay
    Default : No
    Forced : No





    Download:cornfile
    https://www.cornfile.com/2u7vw7hxcbh3
    Download:filecondo
    http://www.filecondo.com/dl.php?f=F775961M8hvC

  2. #2
    Senior Member
    สมัครเมื่อ
    Jul 2013
    โพสต์
    2,712
    Thanks
    0
    Thanked 0 Times in 0 Posts
    ขอบคุณครับ

+ ตอบกลับกระทู้

ข้อมูลกระทู้

Users Browsing this Thread

ในขณะนี้มี 1 ท่านดูกระทู้อยู่. (0 สมาชิกและ 1 ผู้เยี่ยมชม)

     

กฎการโพสต์ข้อความ

  • ท่าน ไม่สามารถ ตั้งกระทู้ใหม่ได้
  • ท่าน ไม่สามารถ ตอบกระทู้ได้
  • ท่าน ไม่สามารถ แนบไฟล์ได้
  • ท่าน ไม่สามารถ แก้ไขข้อความโพสต์ได้
  • BB code สถานะ เปิด
  • Smilies สถานะ เปิด
  • [IMG] สถานะ เปิด
  • HTML สถานะ ปิด