+ ตอบกลับกระทู้
สรุปผลการค้นหา 1 ถึง 3 จากทั้งหมด 3
  1. #1
    Administrators รูปส่วนตัว Duckload.us
    สมัครเมื่อ
    Dec 2010
    โพสต์
    131,531
    Thanks
    7
    Thanked 135,192 Times in 59,795 Posts

    Thumbs up [ฝรั่ง]DARK LIGHT (2019) ดากต์ไลท์ ปีศาจมฤตยู [พากย์:ไทย/อังกฤษ][SUB:ไทยฝัง][1080p]



    ผู้หญิงคนหนึ่งกลับไปที่บ้านในชนบทพร้อมด้วยลูกสาวแต ่แล้วก็ถูกนายอำเภอญิงของเมืองนั้นจับกุมในข้อหาทำร้ ายสามีและเธอได้พบเรื่องประหลาดหลายอย่างคล้ายประสาท หลอน ใช้เวลาอยู่นานจนเธอได้พบว่าที่จริงแล้วมีสัตว์ประหล าดอาศัยอยู่ในบ้านของเธอนั่นเอง

    Format : Matroska
    Format version : Version 4
    File size : 3.21 GiB
    Duration : 1 h 24 min
    Overall bit rate mode : Variable
    Overall bit rate : 5 426 kb/s
    Movie name : Dark Light (2019)_©GOLD CUP™_WWW.TT-TORRENT.COM

    Video
    ID : 1
    Format : AVC
    Format/Info : Advanced Video Codec
    Format profile : [email protected]
    Format settings : CABAC / 3 Ref Frames
    Format settings, CABAC : Yes
    Format settings, Reference : 3 frames
    Codec ID : V_MPEG4/ISO/AVC
    Duration : 1 h 24 min
    Bit rate mode : Variable
    Bit rate : 5 018 kb/s
    Maximum bit rate : 15.0 Mb/s
    Width : 1 920 pixels
    Height : 960 pixels
    Display aspect ratio : 2.000
    Frame rate mode : Constant
    Frame rate : 30.000 FPS
    Color space : YUV
    Chroma subsampling : 4:2:0
    Bit depth : 8 bits
    Scan type : Progressive
    Bits/(Pixel*Frame) : 0.091
    Stream size : 2.97 GiB (92%)
    Title : Dark Light (2019)_©GOLD CUP™_
    Language : Thai
    Default : Yes
    Forced : No

    Audio #1
    ID : 2
    Format : AAC LC
    Format/Info : Advanced Audio Codec Low Complexity
    Codec ID : A_AAC-2
    Duration : 1 h 24 min
    Bit rate : 210 kb/s
    Channel(s) : 2 channels
    Channel layout : L R
    Sampling rate : 44.1 kHz
    Frame rate : 43.066 FPS (1024 SPF)
    Compression mode : Lossy
    Stream size : 127 MiB (4%)
    Title : Th.AAC.2.0:210 kb/s
    Language : Thai
    Default : Yes
    Forced : No

    Audio #2
    ID : 3
    Format : AC-3
    Format/Info : Audio Coding 3
    Commercial name : Dolby Digital
    Codec ID : A_AC3
    Duration : 1 h 24 min
    Bit rate mode : Constant
    Bit rate : 192 kb/s
    Channel(s) : 2 channels
    Channel layout : L R
    Sampling rate : 48.0 kHz
    Frame rate : 31.250 FPS (1536 SPF)
    Compression mode : Lossy
    Stream size : 116 MiB (4%)
    Title : En.2.0.AC3.192k
    Language : English
    Service kind : Complete Main
    Default : Yes
    Forced : No





    Download:cornfile
    https://www.cornfile.com/s6p6qd6hmnui
    Download:filecondo
    http://www.filecondo.com/dl.php?f=p2c60f1M8l4N

  2. The Following 2 Users Say Thank You to Duckload.us For This Useful Post:

    masaomi (07-29-2021), noi54 (07-28-2021)

  3. #2
    Senior Member
    สมัครเมื่อ
    Jul 2013
    โพสต์
    2,712
    Thanks
    0
    Thanked 0 Times in 0 Posts
    ขอบคุณครับ สยองขวัญ ชั้น b

  4. #3
    Member
    สมัครเมื่อ
    Aug 2015
    โพสต์
    51
    Thanks
    0
    Thanked 0 Times in 0 Posts
    โหลดได้แล้วค่ะ ขอบคุณมากค่ะ
    แก้ไขครั้งล่าสุดโดย narinee : 07-28-2021 เมื่อ 05:06 PM

+ ตอบกลับกระทู้

ข้อมูลกระทู้

Users Browsing this Thread

ในขณะนี้มี 1 ท่านดูกระทู้อยู่. (0 สมาชิกและ 1 ผู้เยี่ยมชม)

     

กฎการโพสต์ข้อความ

  • ท่าน ไม่สามารถ ตั้งกระทู้ใหม่ได้
  • ท่าน ไม่สามารถ ตอบกระทู้ได้
  • ท่าน ไม่สามารถ แนบไฟล์ได้
  • ท่าน ไม่สามารถ แก้ไขข้อความโพสต์ได้
  • BB code สถานะ เปิด
  • Smilies สถานะ เปิด
  • [IMG] สถานะ เปิด
  • HTML สถานะ ปิด