+ ͺѺз
ػšä 1 ֧ 8 ҡ 8
  1. #1
    Administrators ٻǹ Duckload.us
    Ѥ
    Dec 2010
    ʵ
    131,531
    Thanks
    7
    Thanked 135,192 Times in 59,795 Posts

    Thumbs up []-[AMAZON] Fast and Furious 9 (F9) (2021) ..çعá 9-WEB-DL.EAC-3.Atmos.1080p. [Modified]-[ҡѧ Atmos 5.1 -ѧ] - ͹ѹ ⾸٧




    ԹԤ (Թ ) ա͡Եҧº Ѻ絵ѹ١µǹ ǡ㹴Թᴹʧآ ѧѹ ǹ ͧ༪ԭ˹ҡѺҺһʹյͧ ҡҵͧèлͧԵͧѡҡش ѡ觢ͧҡѺǡѹա ش÷ҧš¹ѡйѡ觽ͩ ҨҤਤͺ ͧ¢ͧ ( չ)


    Format : Matroska
    Format version : Version 4
    File size : 4.87 GiB
    Duration : 2 h 22 min
    Overall bit rate : 4 879 kb/s
    Encoded date : UTC 2021-07-29 17:38:01
    Writing application : mkvmerge v59.0.0 ('Shining Star') 64-bit
    Writing library : libebml v1.4.2 + libmatroska v1.6.4

    Video
    ID : 1
    Format : AVC
    Format/Info : Advanced Video Codec
    Format profile : [email protected]
    Format settings : CABAC / 3 Ref Frames
    Format settings, CABAC : Yes
    Format settings, Reference : 3 frames
    Codec ID : V_MPEG4/ISO/AVC
    Duration : 2 h 22 min
    Bit rate : 4 092 kb/s
    Width : 1 920 pixels
    Height : 800 pixels
    Display aspect ratio : 2.40:1
    Frame rate mode : Constant
    Frame rate : 23.976 (24000/1001) FPS
    Color space : YUV
    Chroma subsampling : 4:2:0
    Bit depth : 8 bits
    Scan type : Progressive
    Bits/(Pixel*Frame) : 0.111
    Stream size : 4.08 GiB (84%)
    Language : English
    Default : Yes
    Forced : No
    Color range : Limited
    Color primaries : BT.709
    Transfer characteristics : BT.709
    Matrix coefficients : BT.709

    Audio
    ID : 2
    Format : E-AC-3 JOC
    Format/Info : Enhanced AC-3 with Joint Object Coding
    Commercial name : Dolby Digital Plus with Dolby Atmos
    Codec ID : A_EAC3
    Duration : 2 h 22 min
    Bit rate mode : Constant
    Bit rate : 768 kb/s
    Channel(s) : 6 channels
    Channel layout : L R C LFE Ls Rs
    Sampling rate : 48.0 kHz
    Frame rate : 31.250 FPS (1536 SPF)
    Compression mode : Lossy
    Stream size : 785 MiB (16%)
    Title : E-AC3 Atmos English
    Language : English
    Service kind : Complete Main
    Default : Yes
    Forced : No
    Complexity index : 16
    Number of dynamic objects : 15
    Bed channel count : 1 channel
    Bed channel configuration : LFE

    Text #1
    ID : 3
    Format : VobSub
    Muxing mode : zlib
    Codec ID : S_VOBSUB
    Codec ID/Info : Picture based subtitle format used on DVDs
    Duration : 2 h 12 min
    Bit rate : 9 226 b/s
    Count of elements : 1351
    Stream size : 8.72 MiB (0%)
    Title : Sub Thai 1080p
    Language : Thai
    Default : No
    Forced : No

    Text #2
    ID : 4
    Format : UTF-8
    Codec ID : S_TEXT/UTF8
    Codec ID/Info : UTF-8 Plain Text
    Duration : 2 h 12 min
    Bit rate : 95 b/s
    Count of elements : 1351
    Stream size : 92.5 KiB (0%)
    Title : Sub Thai SRT
    Language : Thai
    Default : No
    Forced : No

    Text #3
    ID : 5
    Format : PGS
    Muxing mode : zlib
    Codec ID : S_HDMV/PGS
    Codec ID/Info : Picture based subtitle format used on BDs/HD-DVDs
    Duration : 2 h 12 min
    Bit rate : 26.2 kb/s
    Count of elements : 2702
    Stream size : 24.8 MiB (0%)
    Title : Sub Thai PGS
    Language : Thai
    Default : Yes
    Forced : No

    Text #4
    ID : 6
    Format : UTF-8
    Codec ID : S_TEXT/UTF8
    Codec ID/Info : UTF-8 Plain Text
    Duration : 2 h 17 min
    Bit rate : 42 b/s
    Count of elements : 1585
    Stream size : 42.8 KiB (0%)
    Title : Sub English SRT
    Language : English
    Default : No
    Forced : No






    - ͹ѹ ⾸٧
    Download:cornfile
    F9.The.Fast.Saga.2021.1080p.10bit.AMZN.WEB-DL.60FPS.x265.HEVC.mkv - 4.1 GB
    F9.The.Fast.Saga.2021.1080p.WEB-DL.DDP5.1.x264.mkv - 10.9 GB
    Fast and Furious 9 (F9) (2021).mkv - 4.9 GB
    Fast.and.Furious.F9.The.Fast.Saga.2021.1080p.WEBRi p.x265 .mkv - 2.2 GB

    Download:filecondo
    F9.The.Fast.Saga.2021.1080p.10bit.AMZN.WEB-DL.60FPS.x265.HEVC.mkv - 4.1 GB
    Fast and Furious 9 (F9) (2021).mkv - 4.9 GB
    Fast.and.Furious.F9.The.Fast.Saga.2021.1080p.WEBRi p.x265 .mkv - 2.2 GB
    F9.The.Fast.Saga.2021.1080p.WEB-DL.DDP5.1.x264.mkv - 10.9 GB

  2. The Following 7 Users Say Thank You to Duckload.us For This Useful Post:

    jackjangri (07-31-2021), jangska (07-30-2021), kappa (08-03-2021), mettset (08-01-2021), noi54 (07-31-2021), sawara (08-02-2021), Wesker_TOT (08-01-2021)

  3. #2
    Member
    Ѥ
    Aug 2015
    ʵ
    37
    Thanks
    60
    Thanked 0 Times in 0 Posts
    Filecondo Ŵ¤Ѻ

  4. #3
    Junior Member
    Ѥ
    Jun 2015
    ʵ
    3
    Thanks
    0
    Thanked 0 Times in 0 Posts
    File Condo ѧѺôŴ кѧż

  5. #4
    Senior Member
    Ѥ
    Jun 2011
    ʵ
    336
    Thanks
    488
    Thanked 40 Times in 29 Posts
    thank you...

  6. #5
    Senior Member
    Ѥ
    May 2011
    ʵ
    133
    Thanks
    44
    Thanked 0 Times in 0 Posts
    ͹Ҩ filecondo cornfile
    ա

  7. #6
    Junior Member
    Ѥ
    Mar 2012
    ʵ
    6
    Thanks
    0
    Thanked 0 Times in 0 Posts
    filecondo 仫 cornfileѤVIP BTC

  8. #7
    Senior Member
    Ѥ
    Dec 2013
    ʵ
    3,182
    Thanks
    5,096
    Thanked 0 Times in 0 Posts
    ͺسѺ...

  9. #8
    Senior Member
    Ѥ
    Dec 2013
    ʵ
    494
    Thanks
    430
    Thanked 0 Times in 0 Posts
    ͺسѺ

+ ͺѺз

šз

Users Browsing this Thread

㹢й 1 ҹ١з. (0 Ҫԡ 1 )

     

ʵͤ

  • ҹ ö 駡з
  • ҹ ö ͺз
  • ҹ ö
  • ҹ ö 䢢ͤʵ