+ ตอบกลับกระทู้
สรุปผลการค้นหา 1 ถึง 2 จากทั้งหมด 2
  1. #1
    Administrators รูปส่วนตัว Duckload.us
    สมัครเมื่อ
    Dec 2010
    โพสต์
    131,512
    Thanks
    7
    Thanked 135,178 Times in 59,785 Posts

    Thumbs up [ฝรั่ง]-[AMAZON] The Boy Behind The Door (2021)-WEB-DL.EAC-3.1080p. [Modified]-[พากย์อังกฤษ บรรยายไทย-อังกฤษ]




    หลังจากที่บ๊อบบี้และเควินเพื่อนสนิทของเขาถูกลักพาต ัวและพาไปที่บ้านแปลกๆ ที่ไม่รู้ว่าอยู่ที่ไหน บ็อบบี้สามารถหลบหนีไปได้ เมื่อเขาหยุดพัก เขากลับได้ยินเสียงกรีดร้องของเควินเพื่อขอความช่วยเ หลือ บ๊อบบี้รู้ดีว่าเขาไม่สามารถทิ้งเพื่อนไว้ข้างหลังได ้


    Format : Matroska
    Format version : Version 4
    File size : 4.21 GiB
    Duration : 1 h 28 min
    Overall bit rate : 6 845 kb/s
    Encoded date : UTC 2021-07-30 05:33:06
    Writing application : mkvmerge v59.0.0 ('Shining Star') 64-bit
    Writing library : libebml v1.4.2 + libmatroska v1.6.4

    Video
    ID : 1
    Format : AVC
    Format/Info : Advanced Video Codec
    Format profile : [email protected]
    Format settings : CABAC / 3 Ref Frames
    Format settings, CABAC : Yes
    Format settings, Reference : 3 frames
    Codec ID : V_MPEG4/ISO/AVC
    Duration : 1 h 28 min
    Bit rate : 6 612 kb/s
    Width : 1 920 pixels
    Height : 816 pixels
    Display aspect ratio : 2.35:1
    Frame rate mode : Constant
    Frame rate : 24.000 FPS
    Color space : YUV
    Chroma subsampling : 4:2:0
    Bit depth : 8 bits
    Scan type : Progressive
    Bits/(Pixel*Frame) : 0.176
    Stream size : 4.07 GiB (97%)
    Language : English
    Default : Yes
    Forced : No
    Color range : Limited
    Color primaries : BT.709
    Transfer characteristics : BT.709
    Matrix coefficients : BT.709

    Audio
    ID : 2
    Format : E-AC-3
    Format/Info : Enhanced AC-3
    Commercial name : Dolby Digital Plus
    Codec ID : A_EAC3
    Duration : 1 h 28 min
    Bit rate mode : Constant
    Bit rate : 224 kb/s
    Channel(s) : 2 channels
    Channel layout : L R
    Sampling rate : 48.0 kHz
    Frame rate : 31.250 FPS (1536 SPF)
    Compression mode : Lossy
    Stream size : 141 MiB (3%)
    Title : E-AC3 English
    Language : English
    Service kind : Complete Main
    Default : Yes
    Forced : No

    Text #1
    ID : 3
    Format : VobSub
    Muxing mode : zlib
    Codec ID : S_VOBSUB
    Codec ID/Info : Picture based subtitle format used on DVDs
    Duration : 1 h 21 min
    Bit rate : 3 681 b/s
    Count of elements : 438
    Stream size : 2.15 MiB (0%)
    Title : Sub Thai 1080p
    Language : Thai
    Default : No
    Forced : No

    Text #2
    ID : 4
    Format : UTF-8
    Codec ID : S_TEXT/UTF8
    Codec ID/Info : UTF-8 Plain Text
    Duration : 1 h 21 min
    Bit rate : 38 b/s
    Count of elements : 438
    Stream size : 22.9 KiB (0%)
    Title : Sub Thai SRT
    Language : Thai
    Default : No
    Forced : No

    Text #3
    ID : 5
    Format : PGS
    Muxing mode : zlib
    Codec ID : S_HDMV/PGS
    Codec ID/Info : Picture based subtitle format used on BDs/HD-DVDs
    Duration : 1 h 21 min
    Bit rate : 10.6 kb/s
    Count of elements : 876
    Stream size : 6.19 MiB (0%)
    Title : Sub Thai PGS
    Language : Thai
    Default : Yes
    Forced : No

    Text #4
    ID : 6
    Format : UTF-8
    Codec ID : S_TEXT/UTF8
    Codec ID/Info : UTF-8 Plain Text
    Duration : 1 h 27 min
    Bit rate : 30 b/s
    Count of elements : 1290
    Stream size : 19.4 KiB (0%)
    Title : Sub English SRT
    Language : English
    Default : No
    Forced : No






    บรรยายไทย - อนันต์ โพธิสูง
    Download:cornfile
    The Boy Behind The Door (2021).mkv - 4.2 GB
    The.Boy.Behind.The.Door.2021.1080p.AMZN.WEBRip.DDP 2.0.x264.mkv - 4.0 GB

    Download:filecondo
    The Boy Behind The Door (2021).mkv - 4.2 GB
    The.Boy.Behind.The.Door.2021.1080p.AMZN.WEBRip.DDP 2.0.x264.mkv - 4.0 GB

  2. The Following User Says Thank You to Duckload.us For This Useful Post:

    noi54 (08-01-2021)

  3. #2
    Senior Member
    สมัครเมื่อ
    Jul 2013
    โพสต์
    2,712
    Thanks
    0
    Thanked 0 Times in 0 Posts
    ขอบคุรครับ

+ ตอบกลับกระทู้

ข้อมูลกระทู้

Users Browsing this Thread

ในขณะนี้มี 1 ท่านดูกระทู้อยู่. (0 สมาชิกและ 1 ผู้เยี่ยมชม)

     

กฎการโพสต์ข้อความ

  • ท่าน ไม่สามารถ ตั้งกระทู้ใหม่ได้
  • ท่าน ไม่สามารถ ตอบกระทู้ได้
  • ท่าน ไม่สามารถ แนบไฟล์ได้
  • ท่าน ไม่สามารถ แก้ไขข้อความโพสต์ได้
  • BB code สถานะ เปิด
  • Smilies สถานะ เปิด
  • [IMG] สถานะ เปิด
  • HTML สถานะ ปิด