+ ตอบกลับกระทู้
สรุปผลการค้นหา 1 ถึง 1 จากทั้งหมด 1
  1. #1
    Administrators รูปส่วนตัว Duckload.us
    สมัครเมื่อ
    Dec 2010
    โพสต์
    131,512
    Thanks
    7
    Thanked 135,178 Times in 59,785 Posts

    Thumbs up [ฝรั่ง]-[NETFLIX] Transformers War for Cybertron Kingdom (2021) ทรานส์ฟอร์เมอร์ส: สงครามไซเบอร์ทรอน: Kingdom-WEB-DL.EAC-3.Atmos.1080p. [rip from Master]-[พากย์อังกฤษ Atmos 5.1 ไทย 5.1 บรรยายไทย-อังกฤษ]




    การเร่งค้นหาออลสปาร์คดำเนินมาถึงบทสรุปบนดาวเคราะห์ แปลกประหลาดดวงหนึ่ง ขณะที่อนาคตกำลังเคลื่อนตัวมาบรรจบกับปัจจุบัน

    Format : Matroska
    Format version : Version 4
    File size : 1.58 GiB
    Duration : 24 min 48 s
    Overall bit rate : 9 093 kb/s
    Encoded date : UTC 2021-07-30 01:55:23
    Writing application : mkvmerge v59.0.0 ('Shining Star') 64-bit
    Writing library : libebml v1.4.2 + libmatroska v1.6.4

    Video
    ID : 1
    Format : AVC
    Format/Info : Advanced Video Codec
    Format profile : [email protected]
    Format settings : CABAC / 4 Ref Frames
    Format settings, CABAC : Yes
    Format settings, Reference : 4 frames
    Codec ID : V_MPEG4/ISO/AVC
    Duration : 24 min 48 s
    Bit rate : 7 626 kb/s
    Width : 1 920 pixels
    Height : 1 080 pixels
    Display aspect ratio : 16:9
    Frame rate mode : Constant
    Frame rate : 24.000 FPS
    Color space : YUV
    Chroma subsampling : 4:2:0
    Bit depth : 8 bits
    Scan type : Progressive
    Bits/(Pixel*Frame) : 0.153
    Stream size : 1.32 GiB (84%)
    Language : English
    Default : Yes
    Forced : No

    Audio #1
    ID : 2
    Format : E-AC-3 JOC
    Format/Info : Enhanced AC-3 with Joint Object Coding
    Commercial name : Dolby Digital Plus with Dolby Atmos
    Codec ID : A_EAC3
    Duration : 24 min 48 s
    Bit rate mode : Constant
    Bit rate : 768 kb/s
    Channel(s) : 6 channels
    Channel layout : L R C LFE Ls Rs
    Sampling rate : 48.0 kHz
    Frame rate : 31.250 FPS (1536 SPF)
    Compression mode : Lossy
    Delay relative to video : -83 ms
    Stream size : 136 MiB (8%)
    Title : E-AC3 Atmos English
    Language : English
    Service kind : Complete Main
    Default : Yes
    Forced : No
    Complexity index : 16
    Number of dynamic objects : 15
    Bed channel count : 1 channel
    Bed channel configuration : LFE

    Audio #2
    ID : 3
    Format : E-AC-3
    Format/Info : Enhanced AC-3
    Commercial name : Dolby Digital Plus
    Codec ID : A_EAC3
    Duration : 24 min 48 s
    Bit rate mode : Constant
    Bit rate : 640 kb/s
    Channel(s) : 6 channels
    Channel layout : L R C LFE Ls Rs
    Sampling rate : 48.0 kHz
    Frame rate : 31.250 FPS (1536 SPF)
    Compression mode : Lossy
    Delay relative to video : -83 ms
    Stream size : 114 MiB (7%)
    Title : E-AC3 Thai
    Language : Thai
    Service kind : Complete Main
    Default : No
    Forced : No

    Text #1
    ID : 4
    Format : VobSub
    Muxing mode : zlib
    Codec ID : S_VOBSUB
    Codec ID/Info : Picture based subtitle format used on DVDs
    Duration : 23 min 38 s
    Bit rate : 11.0 kb/s
    Count of elements : 307
    Stream size : 1.87 MiB (0%)
    Title : Sub Thai 1080p
    Language : Thai
    Default : No
    Forced : No

    Text #2
    ID : 5
    Format : UTF-8
    Codec ID : S_TEXT/UTF8
    Codec ID/Info : UTF-8 Plain Text
    Duration : 23 min 38 s
    Bit rate : 114 b/s
    Count of elements : 307
    Stream size : 19.8 KiB (0%)
    Title : Sub Thai SRT
    Language : Thai
    Default : No
    Forced : No

    Text #3
    ID : 6
    Format : PGS
    Muxing mode : zlib
    Codec ID : S_HDMV/PGS
    Codec ID/Info : Picture based subtitle format used on BDs/HD-DVDs
    Duration : 23 min 38 s
    Bit rate : 31.5 kb/s
    Count of elements : 614
    Stream size : 5.34 MiB (0%)
    Title : Sub Thai PGS
    Language : Thai
    Default : No
    Forced : No

    Text #4
    ID : 7
    Format : PGS
    Muxing mode : zlib
    Codec ID : S_HDMV/PGS
    Codec ID/Info : Picture based subtitle format used on BDs/HD-DVDs
    Duration : 23 min 38 s
    Bit rate : 55.1 kb/s
    Count of elements : 614
    Stream size : 9.31 MiB (1%)
    Title : Sub Thai PGS NETFLIX
    Language : Thai
    Default : Yes
    Forced : No

    Text #5
    ID : 8
    Format : UTF-8
    Codec ID : S_TEXT/UTF8
    Codec ID/Info : UTF-8 Plain Text
    Duration : 23 min 31 s
    Bit rate : 67 b/s
    Count of elements : 430
    Stream size : 11.7 KiB (0%)
    Title : Sub English SRT
    Language : English
    Default : No
    Forced : No






    Download:cornfile
    Transformers War for Cybertron Kingdom EP.01 (2021).mkv - 1.6 GB
    Transformers War for Cybertron Kingdom EP.02 (2021).mkv - 1.5 GB
    Transformers War for Cybertron Kingdom EP.03 (2021).mkv - 1.6 GB
    Transformers War for Cybertron Kingdom EP.04 (2021).mkv - 1.7 GB
    Transformers War for Cybertron Kingdom EP.05 (2021).mkv - 1.8 GB
    Transformers War for Cybertron Kingdom EP.06 (2021).mkv - 2.1 GB

    Download:filecondo

    1 http://www.filecondo.com/dl.php?f=j9ede21M9NSN
    2 http://www.filecondo.com/dl.php?f=W95cb01M9NUM
    3 http://www.filecondo.com/dl.php?f=r8a6aa1M9NWI
    4 http://www.filecondo.com/dl.php?f=B1ded21M9O0h
    5 http://www.filecondo.com/dl.php?f=34b80c1M9O1z
    6 http://www.filecondo.com/dl.php?f=K1092e1M9O4i

  2. The Following User Says Thank You to Duckload.us For This Useful Post:

    adisorntor (07-31-2021)

+ ตอบกลับกระทู้

ข้อมูลกระทู้

Users Browsing this Thread

ในขณะนี้มี 1 ท่านดูกระทู้อยู่. (0 สมาชิกและ 1 ผู้เยี่ยมชม)

     

กฎการโพสต์ข้อความ

  • ท่าน ไม่สามารถ ตั้งกระทู้ใหม่ได้
  • ท่าน ไม่สามารถ ตอบกระทู้ได้
  • ท่าน ไม่สามารถ แนบไฟล์ได้
  • ท่าน ไม่สามารถ แก้ไขข้อความโพสต์ได้
  • BB code สถานะ เปิด
  • Smilies สถานะ เปิด
  • [IMG] สถานะ เปิด
  • HTML สถานะ ปิด