+ ตอบกลับกระทู้
สรุปผลการค้นหา 1 ถึง 3 จากทั้งหมด 3
  1. #1
    Administrators รูปส่วนตัว Duckload.us
    สมัครเมื่อ
    Dec 2010
    โพสต์
    131,504
    Thanks
    7
    Thanked 135,177 Times in 59,785 Posts

    Thumbs up [ฝรั่ง]-F9 The Fast Saga (2021) : เร็ว..แรงทะลุนรก 9-WEB-DL.H.264.1080p. [Modified]-[เสียงอังกฤษDDP5.1-เสียงไทย(สมัครเล่น)-บรรยายไทยคมชัด PGS แปลโดย อนันต์ โพธิสูง]









    PLOT





    ดอม โทเร็ตโต ซึ่งรับบทโดย วิน ดีเซล ปลีกตัวออกไปใช้ชีวิตอย่างเงียบ ๆ พร้อมกับเล็ตตี้และไบรอันลูกชายตัวน้อย แต่พวกเขารู้ว่าแม้จะอยู่ในดินแดนสงบสุข ก็ยังมีอันตรายอยู่ คราวนี้ ดอมต้องเผชิญหน้ากับตราบาปในอดีตของเขา หากเขาต้องการจะปกป้องชีวิตของคนที่เขารักมากที่สุด ทีมนักซิ่งของเขากลับมารวมตัวกันอีกครั้ง เพื่อหยุดการทำลายล้างโลกโดยนักฆ่าและนักซิ่งฝีมือฉก าจซึ่งเขาคือเจคอบ น้องชายของดอม (จอห์น ซีนา จาก The Suicide Squad)

    จัสติน ลิน ผู้กำกับจากภาค 3, 4, 5 และ 6 ที่นำแฟรนไชส์ไปสู่การเป็นภาพยนตร์ระดับบล็อกบัสเตอร ์ กลับมากำกับ Fast & Furious 9 ในภาคนี้ แอ็คชั่นจะขยายไปทั่วโลก จากลอนดอนสู่โตเกียว จากอเมริกากลางสู่เอดินเบอระ จากหลุมหลบภัยลับในอาเซอร์ไบจาน สู่ถนนในทบิลิซี เพื่อนเก่ากลับมามีชีวิตอีกครั้ง ศัตรูเก่าก็กลับมา ประวัติศาสตร์จะซ้ำรอยและความหมายที่แท้จริงของครอบค รัวจะถูกทดสอบอย่างที่ไม่เคยเกิดขึ้นมาก่อน


    Format : Matroska
    Format version : Version 4 / Version 2
    File size : 11.3 GiB
    Duration : 2 h 22 min
    Overall bit rate : 11.3 Mb/s
    Movie name : F9.The.Fast.Saga.2021.1080p.WEB-DL.DDP5.1.x264.TH
    Encoded date : UTC 2021-07-30 11:38:17
    Writing application : mkvmerge v55.0.0 ('Waiting For Space') 64-bit
    Writing library : libebml v1.4.2 + libmatroska v1.6.4

    Video
    ID : 1
    Format : AVC
    Format/Info : Advanced Video Codec
    Format profile : [email protected]
    Format settings, CABAC : Yes
    Format settings, ReFrames : 4 frames
    Codec ID : V_MPEG4/ISO/AVC
    Duration : 2 h 22 min
    Bit rate : 10.2 Mb/s
    Width : 1 920 pixels
    Height : 800 pixels
    Display aspect ratio : 2.40:1
    Frame rate mode : Constant
    Frame rate : 23.976 (24000/1001) FPS
    Color space : YUV
    Chroma subsampling : 4:2:0
    Bit depth : 8 bits
    Scan type : Progressive
    Bits/(Pixel*Frame) : 0.278
    Stream size : 10.2 GiB (90%)
    Language : English
    Default : Yes
    Forced : No
    Color range : Limited
    Color primaries : BT.709
    Transfer characteristics : BT.709
    Matrix coefficients : BT.709

    Audio #1
    ID : 2
    Format : AC-3
    Format/Info : Audio Coding 3
    Mode extension : CM (complete main)
    Format settings, Endianness : Big
    Codec ID : A_AC3
    Duration : 2 h 22 min
    Bit rate mode : Constant
    Bit rate : 448 kb/s
    Channel(s) : 2 channels
    Channel positions : Front: L R
    Sampling rate : 48.0 kHz
    Frame rate : 31.250 FPS (1536 spf)
    Compression mode : Lossy
    Stream size : 458 MiB (4%)
    Title : พากย์ไทย-สมัครเล่นไม่ทราบทีม
    Language : Thai
    Default : Yes
    Forced : No

    Audio #2
    ID : 3
    Format : E-AC-3
    Format/Info : Audio Coding 3
    Format settings, Endianness : Big
    Codec ID : A_EAC3
    Duration : 2 h 22 min
    Bit rate mode : Constant
    Bit rate : 640 kb/s
    Channel(s) : 6 channels
    Channel positions : Front: L C R, Side: L R, LFE
    Sampling rate : 48.0 kHz
    Frame rate : 187.500 FPS (256 spf)
    Compression mode : Lossy
    Stream size : 654 MiB (6%)
    Language : English
    Default : No
    Forced : No

    Text #1
    ID : 4
    Format : PGS
    Muxing mode : zlib
    Codec ID : S_HDMV/PGS
    Codec ID/Info : Picture based subtitle format used on BDs/HD-DVDs
    Duration : 2 h 12 min
    Bit rate : 27.3 kb/s
    Count of elements : 2698
    Stream size : 25.8 MiB (0%)
    Language : Thai
    Default : Yes
    Forced : Yes

    Text #2
    ID : 5
    Format : UTF-8
    Codec ID : S_TEXT/UTF8
    Codec ID/Info : UTF-8 Plain Text
    Duration : 2 h 12 min
    Bit rate : 95 b/s
    Count of elements : 1349
    Stream size : 92.3 KiB (0%)
    Language : Thai
    Default : No
    Forced : No

    Text #3
    ID : 6
    Format : UTF-8
    Codec ID : S_TEXT/UTF8
    Codec ID/Info : UTF-8 Plain Text
    Duration : 2 h 22 min
    Bit rate : 54 b/s
    Count of elements : 2113
    Stream size : 57.4 KiB (0%)
    Title : English
    Language : English
    Default : No
    Forced : No

    Text #4
    ID : 7
    Format : UTF-8
    Codec ID : S_TEXT/UTF8
    Codec ID/Info : UTF-8 Plain Text
    Duration : 2 h 22 min
    Bit rate : 54 b/s
    Count of elements : 2113
    Stream size : 57.4 KiB (0%)
    Title : CC
    Language : English
    Default : No
    Forced : No





    เสียงไทย(สมัครเล่น)
    Test Sound Thai :
    EX.01 - https://www.mediafire.com/file/mctm3...Ex.01.mkv/file
    EX.02 - https://www.mediafire.com/file/vgvoy...Ex.02.mkv/file

    4.16 GB
    Download:cornfile
    https://www.cornfile.com/8cp6t3osfcoi
    Download:filecondo
    http://www.filecondo.com/dl.php?f=Se14151MadNk
    11.33 GB
    Download:cornfile
    https://www.cornfile.com/cv4ts9joo6u2
    Download:filecondo
    http://www.filecondo.com/dl.php?f=t31d6f1Maen0

  2. The Following User Says Thank You to Duckload.us For This Useful Post:

    PeBomb (09-04-2021)

  3. #2
    Junior Member
    สมัครเมื่อ
    Mar 2012
    โพสต์
    6
    Thanks
    0
    Thanked 0 Times in 0 Posts
    เสียงยังเอื่อยไป ครับ การพากษ์ยังเข้าได้ไม่ถึงอารมณ์ ของตัวละครใน เวลานั้นๆ ครับ

  4. #3
    Member
    สมัครเมื่อ
    Sep 2013
    โพสต์
    34
    Thanks
    0
    Thanked 0 Times in 0 Posts
    ฟังซาวแท็กแปลไทยดีกว่าเยอะ

+ ตอบกลับกระทู้

ข้อมูลกระทู้

Users Browsing this Thread

ในขณะนี้มี 1 ท่านดูกระทู้อยู่. (0 สมาชิกและ 1 ผู้เยี่ยมชม)

     

กฎการโพสต์ข้อความ

  • ท่าน ไม่สามารถ ตั้งกระทู้ใหม่ได้
  • ท่าน ไม่สามารถ ตอบกระทู้ได้
  • ท่าน ไม่สามารถ แนบไฟล์ได้
  • ท่าน ไม่สามารถ แก้ไขข้อความโพสต์ได้
  • BB code สถานะ เปิด
  • Smilies สถานะ เปิด
  • [IMG] สถานะ เปิด
  • HTML สถานะ ปิด