+ ตอบกลับกระทู้
หน้า 1 จากทั้งหมด 2 หน้า 1 2 หน้าสุดท้ายหน้าสุดท้าย
สรุปผลการค้นหา 1 ถึง 10 จากทั้งหมด 17
  1. #1
    Administrators รูปส่วนตัว Duckload.us
    สมัครเมื่อ
    Dec 2010
    โพสต์
    132,379
    Thanks
    7
    Thanked 135,975 Times in 60,128 Posts

    Thumbs up [ฝรั่ง] - What If (2021) - Season 1 : EP01-09 Episode 09[ Finale ]- 1080p.WEBRip.DDP5.1.Atmos.x264.DISNEY+ [ เสียงอังกฤษ 5.1 + พากย์ไทย 5.1 & บรรยายอังกฤษ - ไทย PGS,SRT จาก Disney+ Hotstar TH ]






    Format : Matroska
    Format version : Version 4
    File size : 1.60 GiB
    Duration : 28 min 23 s
    Overall bit rate mode : Variable
    Overall bit rate : 8 062 kb/s
    Movie name : What If 2021 - S01E08 - What If Ultron Won
    Encoded date : UTC 2021-09-29 07:59:15
    Writing application : mkvmerge v26.0.0 ('In The Game') 64-bit
    Writing library : libebml v1.3.6 + libmatroska v1.4.9
    IMDB : tt10168312
    TMDB : tv/91363

    Video
    ID : 1
    Format : AVC
    Format/Info : Advanced Video Codec
    Format profile : [email protected]
    Format settings : CABAC / 4 Ref Frames
    Format settings, CABAC : Yes
    Format settings, Reference : 4 frames
    Codec ID : V_MPEG4/ISO/AVC
    Duration : 28 min 23 s
    Bit rate mode : Variable
    Bit rate : 7 073 kb/s
    Maximum bit rate : 12.7 Mb/s
    Width : 1 920 pixels
    Height : 1 080 pixels
    Display aspect ratio : 16:9
    Frame rate mode : Constant
    Frame rate : 24.000 FPS
    Color space : YUV
    Chroma subsampling : 4:2:0
    Bit depth : 8 bits
    Scan type : Progressive
    Bits/(Pixel*Frame) : 0.142
    Stream size : 1.40 GiB (88%)
    Default : Yes
    Forced : No
    Color range : Limited
    Color primaries : BT.709
    Transfer characteristics : BT.709
    Matrix coefficients : BT.709

    Audio #1
    ID : 2
    Format : E-AC-3 JOC
    Format/Info : Enhanced AC-3 with Joint Object Coding
    Commercial name : Dolby Digital Plus with Dolby Atmos
    Codec ID : A_EAC3
    Duration : 28 min 23 s
    Bit rate mode : Constant
    Bit rate : 768 kb/s
    Channel(s) : 6 channels
    Channel layout : L R C LFE Ls Rs
    Sampling rate : 48.0 kHz
    Frame rate : 31.250 FPS (1536 SPF)
    Compression mode : Lossy
    Stream size : 156 MiB (10%)
    Title : English 5.1
    Language : English
    Service kind : Complete Main
    Default : No
    Forced : No
    Complexity index : 16
    Number of dynamic objects : 15
    Bed channel count : 1 channel
    Bed channel configuration : LFE

    Audio #2
    ID : 3
    Format : E-AC-3
    Format/Info : Enhanced AC-3
    Commercial name : Dolby Digital Plus
    Codec ID : A_EAC3
    Duration : 28 min 23 s
    Bit rate mode : Constant
    Bit rate : 192 kb/s
    Channel(s) : 6 channels
    Channel layout : L R C LFE Ls Rs
    Sampling rate : 48.0 kHz
    Frame rate : 31.250 FPS (1536 SPF)
    Compression mode : Lossy
    Stream size : 39.0 MiB (2%)
    Title : Thai 5.1 - Disney+ Hotstar TH @Kenobiiz
    Language : Thai
    Service kind : Complete Main
    Default : Yes
    Forced : No

    Text #1
    ID : 4
    Format : PGS
    Codec ID : S_HDMV/PGS
    Codec ID/Info : Picture based subtitle format used on BDs/HD-DVDs
    Duration : 28 min 5 s
    Bit rate : 26.9 kb/s
    Count of elements : 590
    Stream size : 5.40 MiB (0%)
    Title : Thai PGS
    Language : Thai
    Default : No
    Forced : No

    Text #2
    ID : 5
    Format : UTF-8
    Codec ID : S_TEXT/UTF8
    Codec ID/Info : UTF-8 Plain Text
    Duration : 28 min 5 s
    Bit rate : 111 b/s
    Count of elements : 295
    Stream size : 22.9 KiB (0%)
    Title : Thai SRT
    Language : Thai
    Default : No
    Forced : No

    Text #3
    ID : 6
    Format : UTF-8
    Codec ID : S_TEXT/UTF8
    Codec ID/Info : UTF-8 Plain Text
    Duration : 24 min 55 s
    Bit rate : 53 b/s
    Count of elements : 286
    Stream size : 9.76 KiB (0%)
    Title : English SRT
    Language : English
    Default : No
    Forced : No

    Menu
    00:00:02.750 : Intro
    00:01:21.917 : Main
    00:26:36.792 : Credits







    Download:filecondo
    01 http://www.filecondo.com/dl.php?f=e943511MdLaD
    02 http://www.filecondo.com/dl.php?f=xf2d4e1MgljV
    03 http://www.filecondo.com/dl.php?f=we39d01MiQ2X
    04 http://www.filecondo.com/dl.php?f=Q9d5401Mlogt
    05 http://www.filecondo.com/dl.php?f=D9b0be1MnURi
    06 http://www.filecondo.com/dl.php?f=Ja63ba1MquIR
    07 http://www.filecondo.com/dl.php?f=pe5b1f1Mt0Pt
    08 http://www.filecondo.com/dl.php?f=8f59801MwesI
    09 http://www.filecondo.com/dl.php?f=Bda5e61My4bm

    Download:cornfile
    01 https://www.cornfile.com/125cuxuvsimm
    02 https://www.cornfile.com/stuz2cy65vhw
    03 https://www.cornfile.com/9ykgwmzf5gpj
    04 https://www.cornfile.com/w72fiqyx9qgk
    05 https://www.cornfile.com/4stc2c1n2o48
    06 https://www.cornfile.com/a1n8uuxcxrv7
    07 https://www.cornfile.com/9mavnh8rv1zj
    08 https://www.cornfile.com/9n09tkg7ex6q
    09 https://www.cornfile.com/l9urmxf5p40s

  2. The Following 3 Users Say Thank You to Duckload.us For This Useful Post:

    virusring (09-09-2021), Wesker_TOT (08-12-2021), zhad01 (08-17-2021)

  3. #2
    Senior Member
    สมัครเมื่อ
    Jul 2013
    โพสต์
    2,790
    Thanks
    0
    Thanked 0 Times in 0 Posts
    ขอบคุณครับผม

  4. #3
    Senior Member
    สมัครเมื่อ
    Dec 2013
    โพสต์
    3,210
    Thanks
    5,124
    Thanked 0 Times in 0 Posts
    ขอบคุณครับ...

  5. #4
    Senior Member
    สมัครเมื่อ
    Jul 2014
    โพสต์
    193
    Thanks
    5
    Thanked 0 Times in 0 Posts
    ขอบคุณมากครับ

  6. #5
    Administrators รูปส่วนตัว Duckload.us
    สมัครเมื่อ
    Dec 2010
    โพสต์
    132,379
    Thanks
    7
    Thanked 135,975 Times in 60,128 Posts
    What If (2021) - Season 1 : EP01-02

  7. #6
    Administrators รูปส่วนตัว Duckload.us
    สมัครเมื่อ
    Dec 2010
    โพสต์
    132,379
    Thanks
    7
    Thanked 135,975 Times in 60,128 Posts

  8. #7
    Senior Member
    สมัครเมื่อ
    Jul 2013
    โพสต์
    2,790
    Thanks
    0
    Thanked 0 Times in 0 Posts
    ขอบคุณครับ

  9. #8
    Senior Member รูปส่วนตัว Abuzayas47
    สมัครเมื่อ
    Apr 2020
    โพสต์
    153
    Thanks
    0
    Thanked 0 Times in 0 Posts
    ขอบคุณครับ

  10. #9
    Administrators รูปส่วนตัว Duckload.us
    สมัครเมื่อ
    Dec 2010
    โพสต์
    132,379
    Thanks
    7
    Thanked 135,975 Times in 60,128 Posts
    Season 1 : EP01-04

  11. #10
    Senior Member
    สมัครเมื่อ
    Jun 2014
    โพสต์
    5,299
    Thanks
    0
    Thanked 0 Times in 0 Posts
    อ้างอิง โพสต์ต้นฉบับโดยคุณ Duckload.us ดูโพสต์
    Season 1 : EP01-04
    EP04 ขอ link confile ด้วยครับ ขอบคุณครับ

+ ตอบกลับกระทู้
หน้า 1 จากทั้งหมด 2 หน้า 1 2 หน้าสุดท้ายหน้าสุดท้าย

ข้อมูลกระทู้

Users Browsing this Thread

ในขณะนี้มี 1 ท่านดูกระทู้อยู่. (0 สมาชิกและ 1 ผู้เยี่ยมชม)

     

กฎการโพสต์ข้อความ

  • ท่าน ไม่สามารถ ตั้งกระทู้ใหม่ได้
  • ท่าน ไม่สามารถ ตอบกระทู้ได้
  • ท่าน ไม่สามารถ แนบไฟล์ได้
  • ท่าน ไม่สามารถ แก้ไขข้อความโพสต์ได้
  • BB code สถานะ เปิด
  • Smilies สถานะ เปิด
  • [IMG] สถานะ เปิด
  • HTML สถานะ ปิด