+ ตอบกลับกระทู้
สรุปผลการค้นหา 1 ถึง 2 จากทั้งหมด 2
  1. #1
    Administrators รูปส่วนตัว Duckload.us
    สมัครเมื่อ
    Dec 2010
    โพสต์
    131,531
    Thanks
    7
    Thanked 135,192 Times in 59,795 Posts

    Angry [ฝรั่ง]-(.BD.AI UPSCALE.3840x2160.SDR)+++Battle Los Angeles (2011) วันยึดโลก+++[เสียงอังกฤษDTS-HD.MA.5.1+เสียงไทยมาสเตอร์ : บรรยายไทยมาสเตอร์+อังกฤษ]-Encode.DTS-HD.2160p. [Modified]-[พากย์ไทย บรรยายไทย]



    ชื่ออังกฤษ: World Invasion: Battle Los Angeles
    ชื่อไทย: วันยึดโลก ปีที่ออกฉาย: 2011
    สัญญาณก่อนถึงวันสิ้นโลก…หลายปีที่ผ่านมา มีการรายงานการพบเห็นจานบินทั่วทุกหนแห่งในโลก ไม่ว่าจะเป็นบัวโนส ไอเรส กรุงโซล ฝรั่งเศส เยอรมนี หรือจีน แต่ในปี 2011 สิ่งที่เป็นเพียงภาพจะกลายเป็นความจริงอันน่าสะพรึง เมื่อโลกถูกโจมตีโดยกองกำลังไม่ทราบฝ่าย ขณะที่ผู้คนทั่วโลกเฝ้ามองมหานครทั้งหลายล่มสลายลง ต่อหน้าต่อตา ลอสแองเจลิสก็กลายเป็นฐานที่มั่นสุดท้ายของมนุษยชาติ ในสงครามที่ไม่มีใครคาดคิด เป็นหน้าที่ของจ่าสิบตรีแห่งนาวิกโยธินนายหนึ่ง (แอรอน เอ็คฮาร์ท) และกองพันใหม่ของเขาที่จะลุกขึ้นสู้เฮือกสุดท้าย เมื่อต้องประจันหน้ากับศัตรูที่แตกต่างที่พวกเขาไม่เ คยพบเห็นมาก่อน

    Format : Matroska
    Format version : Version 4
    File size : 51.6 GiB
    Duration : 1 h 56 min
    Overall bit rate mode : Variable
    Overall bit rate : 63.6 Mb/s
    Movie name : Battle Los Angeles 2011
    Encoded date : UTC 2021-09-03 13:47:50
    Writing application : mkvmerge v61.0.0 ('So') 64-bit
    Writing library : libebml v1.4.2 + libmatroska v1.6.4

    Video
    ID : 1
    Format : AVC
    Format/Info : Advanced Video Codec
    Format profile : [email protected]
    Format settings : 1 Ref Frames
    Format settings, CABAC : No
    Format settings, Reference frames : 1 frame
    Format settings, GOP : M=1, N=12
    Codec ID : V_MPEG4/ISO/AVC
    Duration : 1 h 56 min
    Bit rate : 59.7 Mb/s
    Width : 3 840 pixels
    Height : 2 160 pixels
    Display aspect ratio : 16:9
    Frame rate mode : Constant
    Frame rate : 23.976 (24000/1001) FPS
    Color space : YUV
    Chroma subsampling : 4:2:0
    Bit depth : 8 bits
    Scan type : Progressive
    Bits/(Pixel*Frame) : 0.300
    Stream size : 48.4 GiB (94%)
    Writing library : x264 core 157 r2970 5493be8
    Encoding settings : cabac=0 / ref=1 / deblock=0:0:0 / analyse=0:0 / me=dia / subme=0 / psy=1 / psy_rd=1.00:0.00 / mixed_ref=0 / me_range=16 / chroma_me=1 / trellis=0 / 8x8dct=0 / cqm=0 / deadzone=21,11 / fast_pskip=1 / chroma_qp_offset=0 / threads=8 / lookahead_threads=1 / sliced_threads=0 / nr=0 / decimate=1 / interlaced=0 / bluray_compat=0 / constrained_intra=0 / bframes=0 / weightp=0 / keyint=12 / keyint_min=1 / scenecut=0 / intra_refresh=0 / rc=crf / mbtree=0 / crf=15.0 / qcomp=0.60 / qpmin=0 / qpmax=69 / qpstep=4 / ip_ratio=1.40 / aq=0
    Default : Yes
    Forced : No

    Audio #1
    ID : 2
    Format : DTS XLL
    Format/Info : Digital Theater Systems
    Commercial name : DTS-HD Master Audio
    Codec ID : A_DTS
    Duration : 1 h 56 min
    Bit rate mode : Variable
    Bit rate : 2 474 kb/s
    Channel(s) : 6 channels
    Channel layout : C L R Ls Rs LFE
    Sampling rate : 48.0 kHz
    Frame rate : 93.750 FPS (512 SPF)
    Bit depth : 16 bits
    Compression mode : Lossless
    Stream size : 2.01 GiB (4%)
    Language : English
    Default : Yes
    Forced : No

    Audio #2
    ID : 3
    Format : AC-3
    Format/Info : Audio Coding 3
    Commercial name : Dolby Digital
    Codec ID : A_AC3
    Duration : 1 h 56 min
    Bit rate mode : Constant
    Bit rate : 640 kb/s
    Channel(s) : 6 channels
    Channel layout : L R C LFE Ls Rs
    Sampling rate : 48.0 kHz
    Frame rate : 31.250 FPS (1536 SPF)
    Compression mode : Lossy
    Stream size : 532 MiB (1%)
    Title : MASTER BD
    Language : Thai
    Service kind : Complete Main
    Default : No
    Forced : No

    Audio #3
    ID : 4
    Format : DTS
    Format/Info : Digital Theater Systems
    Codec ID : A_DTS
    Duration : 1 h 56 min
    Bit rate mode : Constant
    Bit rate : 755 kb/s
    Channel(s) : 6 channels
    Channel layout : C L R Ls Rs LFE
    Sampling rate : 48.0 kHz
    Frame rate : 93.750 FPS (512 SPF)
    Bit depth : 24 bits
    Compression mode : Lossy
    Stream size : 627 MiB (1%)
    Title : ENG DTS
    Language : English
    Default : No
    Forced : No

    Text #1
    ID : 5
    Format : PGS
    Muxing mode : zlib
    Codec ID : S_HDMV/PGS
    Codec ID/Info : Picture based subtitle format used on BDs/HD-DVDs
    Duration : 1 h 55 min
    Bit rate : 29.2 kb/s
    Count of elements : 2912
    Stream size : 24.2 MiB (0%)
    Title : MASTER BD
    Language : Thai
    Default : No
    Forced : No

    Text #2
    ID : 6
    Format : VobSub
    Muxing mode : zlib
    Codec ID : S_VOBSUB
    Codec ID/Info : Picture based subtitle format used on DVDs
    Duration : 1 h 55 min
    Bit rate : 2 327 b/s
    Count of elements : 1456
    Stream size : 1.93 MiB (0%)
    Title : MASTER BD
    Language : Thai
    Default : No
    Forced : No

    Text #3
    ID : 7
    Format : VobSub
    Muxing mode : zlib
    Codec ID : S_VOBSUB
    Codec ID/Info : Picture based subtitle format used on DVDs
    Duration : 1 h 55 min
    Bit rate : 2 327 b/s
    Count of elements : 1456
    Stream size : 1.93 MiB (0%)
    Title : MASTER BD
    Language : Thai
    Default : No
    Forced : No

    Text #4
    ID : 8
    Format : VobSub
    Muxing mode : zlib
    Codec ID : S_VOBSUB
    Codec ID/Info : Picture based subtitle format used on DVDs
    Duration : 1 h 55 min
    Bit rate : 8 125 b/s
    Count of elements : 1456
    Stream size : 6.74 MiB (0%)
    Title : MASTER BD
    Language : Thai
    Default : No
    Forced : No

    Text #5
    ID : 9
    Format : PGS
    Muxing mode : zlib
    Codec ID : S_HDMV/PGS
    Codec ID/Info : Picture based subtitle format used on BDs/HD-DVDs
    Duration : 1 h 50 min
    Bit rate : 37.1 kb/s
    Count of elements : 2850
    Stream size : 29.5 MiB (0%)
    Title : MASTER BD
    Language : English
    Default : No
    Forced : No

    Text #6
    ID : 10
    Format : VobSub
    Muxing mode : zlib
    Codec ID : S_VOBSUB
    Codec ID/Info : Picture based subtitle format used on DVDs
    Duration : 1 h 50 min
    Bit rate : 3 153 b/s
    Count of elements : 1423
    Stream size : 2.50 MiB (0%)
    Title : MASTER BD
    Language : English
    Default : No
    Forced : No

    Text #7
    ID : 11
    Format : PGS
    Muxing mode : zlib
    Codec ID : S_HDMV/PGS
    Codec ID/Info : Picture based subtitle format used on BDs/HD-DVDs
    Duration : 1 h 48 min
    Bit rate : 707 b/s
    Count of elements : 50
    Stream size : 560 KiB (0%)
    Language : Russian
    Default : No
    Forced : No

    Text #8
    ID : 12
    Format : PGS
    Muxing mode : zlib
    Codec ID : S_HDMV/PGS
    Codec ID/Info : Picture based subtitle format used on BDs/HD-DVDs
    Duration : 1 h 48 min
    Bit rate : 11.6 kb/s
    Count of elements : 830
    Stream size : 8.97 MiB (0%)
    Language : Russian
    Default : No
    Forced : No




    https://www.cornfile.com/mprfga1infz2

  2. #2
    Senior Member
    สมัครเมื่อ
    Jun 2012
    โพสต์
    1,553
    Thanks
    0
    Thanked 1 Time in 1 Post
    ขอบคุณครับ

+ ตอบกลับกระทู้

ข้อมูลกระทู้

Users Browsing this Thread

ในขณะนี้มี 1 ท่านดูกระทู้อยู่. (0 สมาชิกและ 1 ผู้เยี่ยมชม)

     

กฎการโพสต์ข้อความ

  • ท่าน ไม่สามารถ ตั้งกระทู้ใหม่ได้
  • ท่าน ไม่สามารถ ตอบกระทู้ได้
  • ท่าน ไม่สามารถ แนบไฟล์ได้
  • ท่าน ไม่สามารถ แก้ไขข้อความโพสต์ได้
  • BB code สถานะ เปิด
  • Smilies สถานะ เปิด
  • [IMG] สถานะ เปิด
  • HTML สถานะ ปิด