+ ตอบกลับกระทู้
สรุปผลการค้นหา 1 ถึง 1 จากทั้งหมด 1
  1. #1
    Administrators รูปส่วนตัว Duckload.us
    สมัครเมื่อ
    Dec 2010
    โพสต์
    131,531
    Thanks
    7
    Thanked 135,192 Times in 59,795 Posts

    Thumbs up [ฝรั่ง] Flight World War II (2015) เที่ยวบินทะลุมิติ x264 [พากย์:ไทย/อังกฤษ][SUB:ไทย/อังกฤษ][1080p]



    แอคชั่นผจญภัยไซไฟ. หลังจากเที่ยวบิน 42 เดินทางผ่านพายุประหลาด พวกเขาพบว่าตัวเองอยู่ในฝรั่งเศส ในช่วงปี ค.ศ. 1940 ซึ่งอยู่ระหว่างสงครามโลกครั้งที่สอง เป็นช่วงที่ทัพอากาศนาซีเยอรมันระดมทิ้งระเบิดใส่เมื องของฝรั่งเศษอย่างหนัก

    Format : Matroska
    Format version : Version 4
    File size : 4.87 GiB
    Duration : 1 h 25 min
    Overall bit rate : 8 178 kb/s
    Movie name : Flight World War II (2015)_©GOLD CUP™_WWW.TT-TORRENT.COM
    Video
    ID : 1
    Format : AVC
    Format/Info : Advanced Video Codec
    Format profile : [email protected]
    Format settings : CABAC / 1 Ref Frames
    Format settings, CABAC : Yes
    Format settings, Reference : 1 frame
    Format settings, GOP : M=1, N=25
    Codec ID : V_MPEG4/ISO/AVC
    Duration : 1 h 25 min
    Bit rate mode : Constant
    Bit rate : 6 767 kb/s
    Width : 1 920 pixels
    Height : 1 080 pixels
    Display aspect ratio : 16:9
    Frame rate mode : Constant
    Frame rate : 23.976 (24000/1001) FPS
    Color space : YUV
    Chroma subsampling : 4:2:0
    Bit depth : 8 bits
    Scan type : Progressive
    Bits/(Pixel*Frame) : 0.136
    Stream size : 4.03 GiB (83%)
    Language : English
    Default : Yes
    Forced : No

    Audio #1
    ID : 2
    Format : AC-3
    Format/Info : Audio Coding 3
    Commercial name : Dolby Digital
    Codec ID : A_AC3
    Duration : 1 h 25 min
    Bit rate mode : Constant
    Bit rate : 384 kb/s
    Channel(s) : 6 channels
    Channel layout : L R C LFE Ls Rs
    Sampling rate : 48.0 kHz
    Frame rate : 31.250 FPS (1536 SPF)
    Compression mode : Lossy
    Stream size : 234 MiB (5%)
    Title : AC3 DVD MASTER
    Language : Thai
    Service kind : Complete Main
    Default : Yes
    Forced : Yes

    Audio #2
    ID : 3
    Format : DTS
    Format/Info : Digital Theater Systems
    Codec ID : A_DTS
    Duration : 1 h 25 min
    Bit rate mode : Constant
    Bit rate : 768 kb/s
    Channel(s) : 6 channels
    Channel layout : C L R Ls Rs LFE
    Sampling rate : 48.0 kHz
    Frame rate : 93.750 FPS (512 SPF)
    Bit depth : 16 bits
    Compression mode : Lossy
    Stream size : 468 MiB (9%)
    Title : DTS
    Language : English
    Default : No
    Forced : No

    Audio #3
    ID : 4
    Format : AAC LC
    Format/Info : Advanced Audio Codec Low Complexity
    Codec ID : A_AAC-2
    Duration : 1 h 25 min
    Bit rate : 224 kb/s
    Channel(s) : 6 channels
    Channel layout : C L R Ls Rs LFE
    Sampling rate : 48.0 kHz
    Frame rate : 46.875 FPS (1024 SPF)
    Compression mode : Lossy
    Stream size : 137 MiB (3%)
    Title : AAC
    Language : English
    Default : No
    Forced : No

    Text #1
    ID : 5
    Format : VobSub
    Muxing mode : zlib
    Codec ID : S_VOBSUB
    Codec ID/Info : Picture based subtitle format used on DVDs
    Duration : 1 h 21 min
    Bit rate : 9 082 b/s
    Count of elements : 1174
    Stream size : 5.31 MiB (0%)
    Title : 1080P TSA ZAKKY
    Language : Thai
    Default : No
    Forced : No

    Text #2
    ID : 6
    Format : PGS
    Muxing mode : zlib
    Codec ID : S_HDMV/PGS
    Codec ID/Info : Picture based subtitle format used on BDs/HD-DVDs
    Duration : 1 h 21 min
    Bit rate : 39.0 kb/s
    Count of elements : 2348
    Stream size : 22.8 MiB (0%)
    Title : TSA
    Language : Thai
    Default : Yes
    Forced : Yes

    Text #3
    ID : 7
    Format : VobSub
    Muxing mode : zlib
    Codec ID : S_VOBSUB
    Codec ID/Info : Picture based subtitle format used on DVDs
    Duration : 1 h 21 min
    Bit rate : 19.6 kb/s
    Count of elements : 1043
    Stream size : 11.4 MiB (0%)
    Title : EN.140.2.90.Yellow
    Language : English
    Default : No
    Forced : No

    Menu
    00:00:00.043 : 00:00:00.000
    00:05:55.607 : 00:05:55.564
    00:12:50.646 : 00:12:50.603
    00:20:20.220 : 00:20:20.177
    00:25:55.806 : 00:25:55.763
    00:32:33.328 : 00:32:33.285
    00:40:12.912 : 00:40:12.869
    00:45:34.441 : 00:45:34.398
    00:52:44.246 : 00:52:44.203
    00:58:55.408 : 00:58:55.365
    01:05:14.871 : 01:05:14.828
    01:10:16.046 : 01:10:16.003





    Download:filecondo
    http://www.filecondo.com/dl.php?f=6ee0281Mpn9L
    Download:cornfile
    https://www.cornfile.com/zwekmu6z0oee

  2. The Following 2 Users Say Thank You to Duckload.us For This Useful Post:

    Jodz14 (09-15-2021), Timarat (09-13-2021)

+ ตอบกลับกระทู้

ข้อมูลกระทู้

Users Browsing this Thread

ในขณะนี้มี 1 ท่านดูกระทู้อยู่. (0 สมาชิกและ 1 ผู้เยี่ยมชม)

     

กฎการโพสต์ข้อความ

  • ท่าน ไม่สามารถ ตั้งกระทู้ใหม่ได้
  • ท่าน ไม่สามารถ ตอบกระทู้ได้
  • ท่าน ไม่สามารถ แนบไฟล์ได้
  • ท่าน ไม่สามารถ แก้ไขข้อความโพสต์ได้
  • BB code สถานะ เปิด
  • Smilies สถานะ เปิด
  • [IMG] สถานะ เปิด
  • HTML สถานะ ปิด