+ ตอบกลับกระทู้
สรุปผลการค้นหา 1 ถึง 2 จากทั้งหมด 2
  1. #1
    Administrators รูปส่วนตัว Duckload.us
    สมัครเมื่อ
    Dec 2010
    โพสต์
    131,531
    Thanks
    7
    Thanked 135,192 Times in 59,795 Posts

    Thumbs up [ฝรั่ง] Malevolent (2018) หลอกจับผี หลอนจับตาย [พากย์:ไทย/อังกฤษ][SUB:ไทยฝัง][1080p]



    สองพี่น้องนักต้มตุ๋น แองเจล่า (ฟลอเรนซ์ พิวจ์) และ แจ็คสัน (เบน ลอยด์ ฮิวจ์) หากินกับผู้ที่กำลังโศกเศร้าจากการสูญเสียคนรัก โดยการหลอกว่าแอนเจล่าสามารถติดต่อกับวิญญาณได้ เหยื่อรายต่อไปของทั้งสองคือหญิงชราคนหนึ่งที่จ้างพว กเขาให้มาไล่ผีที่บ้านเด็กกำพร้าร้าง เพราะเธอโดนเสียงปริศนาเล่นงานจนไม่เป็นอันนอน แต่กลายเป็นว่างานที่เหมือนจะง่าย กลับกลายเป็นฝันร้าย เมื่อสองพี่น้องค้นพบประวัติสุดสยองของบ้านเด็กกำพร้ าแห่งนี้ มันเคยเป็นห้องเชือดของฆาตกรโรคจิตที่จับเด็กสาวมาฆ่ าเย็บปากอย่างไร้เมตตา สองพี่น้องต้องรับมือกับปรากฏการณ์เหนือธรรมชาติน่าข นลุกและความอาฆาตที่จ้องจะเอาชีวิต จะเป็นอย่างไรเมื่อจอมต้มตุ๋นต้องเผชิญกับของจริง

    Format : Matroska
    Format version : Version 4
    File size : 4.14 GiB
    Duration : 1 h 28 min
    Overall bit rate : 6 676 kb/s
    Movie name : Malevolent (2018)_©GOLD CUP™_WWW.TT-TORRENT.COM

    Video
    ID : 1
    Format : AVC
    Format/Info : Advanced Video Codec
    Format profile : [email protected]
    Format settings : CABAC / 1 Ref Frames
    Format settings, CABAC : Yes
    Format settings, Reference : 1 frame
    Format settings, GOP : M=1, N=25
    Codec ID : V_MPEG4/ISO/AVC
    Duration : 1 h 28 min
    Bit rate mode : Constant
    Bit rate : 5 911 kb/s
    Width : 1 920 pixels
    Height : 798 pixels
    Display aspect ratio : 2.40:1
    Frame rate mode : Constant
    Frame rate : 24.000 FPS
    Color space : YUV
    Chroma subsampling : 4:2:0
    Bit depth : 8 bits
    Scan type : Progressive
    Bits/(Pixel*Frame) : 0.161
    Stream size : 3.66 GiB (88%)
    Title : Malevolent (2018)_©GOLD CUP™
    Language : English
    Default : Yes
    Forced : No

    Audio #1
    ID : 2
    Format : AAC LC
    Format/Info : Advanced Audio Codec Low Complexity
    Codec ID : A_AAC-2
    Duration : 1 h 28 min
    Bit rate : 384 kb/s
    Channel(s) : 6 channels
    Channel layout : C L R Ls Rs LFE
    Sampling rate : 48.0 kHz
    Frame rate : 46.875 FPS (1024 SPF)
    Compression mode : Lossy
    Stream size : 243 MiB (6%)
    Title : Th.AAC:384 kb/s.6 channels
    Language : Thai
    Default : Yes
    Forced : No

    Audio #2
    ID : 3
    Format : AAC LC
    Format/Info : Advanced Audio Codec Low Complexity
    Codec ID : A_AAC-2
    Duration : 1 h 28 min
    Bit rate : 384 kb/s
    Channel(s) : 6 channels
    Channel layout : C L R Ls Rs LFE
    Sampling rate : 48.0 kHz
    Frame rate : 46.875 FPS (1024 SPF)
    Compression mode : Lossy
    Stream size : 243 MiB (6%)
    Title : En.AAC:384 kb/s.6 channels
    Language : English
    Default : Yes
    Forced : No





    Download:filecondo
    http://www.filecondo.com/dl.php?f=x7f7af1Mq61q
    Download:cornfile
    https://www.cornfile.com/z6osfej28cch

  2. The Following 3 Users Say Thank You to Duckload.us For This Useful Post:

    Jodz14 (09-15-2021), noi54 (09-15-2021), sawara (09-15-2021)

  3. #2
    Senior Member
    สมัครเมื่อ
    Dec 2013
    โพสต์
    494
    Thanks
    430
    Thanked 0 Times in 0 Posts
    ขอบคุณครับบ

+ ตอบกลับกระทู้

ข้อมูลกระทู้

Users Browsing this Thread

ในขณะนี้มี 1 ท่านดูกระทู้อยู่. (0 สมาชิกและ 1 ผู้เยี่ยมชม)

     

กฎการโพสต์ข้อความ

  • ท่าน ไม่สามารถ ตั้งกระทู้ใหม่ได้
  • ท่าน ไม่สามารถ ตอบกระทู้ได้
  • ท่าน ไม่สามารถ แนบไฟล์ได้
  • ท่าน ไม่สามารถ แก้ไขข้อความโพสต์ได้
  • BB code สถานะ เปิด
  • Smilies สถานะ เปิด
  • [IMG] สถานะ เปิด
  • HTML สถานะ ปิด