+ ตอบกลับกระทู้
สรุปผลการค้นหา 1 ถึง 3 จากทั้งหมด 3
  1. #1
    Administrators รูปส่วนตัว Duckload.us
    สมัครเมื่อ
    Dec 2010
    โพสต์
    131,531
    Thanks
    7
    Thanked 135,192 Times in 59,795 Posts

    Thumbs up [ฝรั่ง]-Great White (2021) เทพเจ้าสีขาว-Blu-ray.DTS.1080p. [Modified]-[พากย์อังกฤษ 5.1 บรรยายไทย (แปล)-อังกฤษ]




    Struggling to keep their small seaplane business afloat, Charlie, a retired marine biologist and shark-bite survivor, his girlfriend Kaz, and friend Benny, are delighted when they are commissioned by high-flying holidaymakers, Joji and his wife, Michelle. However, as soon as the seaplane lands on a sandy beach of remote Hell's Reef, disaster strikes, and the team find themselves trapped in a flimsy inflatable lifeboat with limited supplies. Now, the unfortunate crew drifts aimlessly in the dark, deep waters of the vast ocean, and they are not alone: a massive, stealthy great white shark has already picked up their scent, and it will stop at nothing to feed. Can they escape from the powerful jaws of the ultimate oceanic apex predator?


    Format : Matroska
    Format version : Version 4
    File size : 4.13 GiB
    Duration : 1 h 31 min
    Overall bit rate : 6 474 kb/s
    Encoded date : UTC 2021-09-13 12:39:50
    Writing application : mkvmerge v61.0.0 ('So') 64-bit
    Writing library : libebml v1.4.2 + libmatroska v1.6.4

    Video
    ID : 1
    Format : AVC
    Format/Info : Advanced Video Codec
    Format profile : [email protected]
    Format settings : CABAC / 3 Ref Frames
    Format settings, CABAC : Yes
    Format settings, Reference : 3 frames
    Codec ID : V_MPEG4/ISO/AVC
    Duration : 1 h 31 min
    Bit rate : 4 951 kb/s
    Width : 1 920 pixels
    Height : 800 pixels
    Display aspect ratio : 2.40:1
    Frame rate mode : Constant
    Frame rate : 24.000 FPS
    Color space : YUV
    Chroma subsampling : 4:2:0
    Bit depth : 8 bits
    Scan type : Progressive
    Bits/(Pixel*Frame) : 0.134
    Stream size : 3.16 GiB (76%)
    Language : English
    Default : Yes
    Forced : No

    Audio
    ID : 2
    Format : DTS
    Format/Info : Digital Theater Systems
    Codec ID : A_DTS
    Duration : 1 h 31 min
    Bit rate mode : Constant
    Bit rate : 1 509 kb/s
    Channel(s) : 6 channels
    Channel layout : C L R Ls Rs LFE
    Sampling rate : 48.0 kHz
    Frame rate : 93.750 FPS (512 SPF)
    Bit depth : 16 bits
    Compression mode : Lossy
    Stream size : 986 MiB (23%)
    Title : DTS English
    Language : English
    Default : Yes
    Forced : No

    Text #1
    ID : 3
    Format : VobSub
    Muxing mode : zlib
    Codec ID : S_VOBSUB
    Codec ID/Info : Picture based subtitle format used on DVDs
    Duration : 1 h 17 min
    Bit rate : 6 977 b/s
    Count of elements : 670
    Stream size : 3.87 MiB (0%)
    Title : Sub Thai 1080p
    Language : Thai
    Default : No
    Forced : No

    Text #2
    ID : 4
    Format : UTF-8
    Codec ID : S_TEXT/UTF8
    Codec ID/Info : UTF-8 Plain Text
    Duration : 1 h 17 min
    Bit rate : 71 b/s
    Count of elements : 670
    Stream size : 40.6 KiB (0%)
    Title : Sub Thai SRT
    Language : Thai
    Default : No
    Forced : No

    Text #3
    ID : 5
    Format : PGS
    Muxing mode : zlib
    Codec ID : S_HDMV/PGS
    Codec ID/Info : Picture based subtitle format used on BDs/HD-DVDs
    Duration : 1 h 17 min
    Bit rate : 19.6 kb/s
    Count of elements : 1340
    Stream size : 10.8 MiB (0%)
    Title : Sub Thai PGS
    Language : Thai
    Default : Yes
    Forced : No

    Text #4
    ID : 6
    Format : UTF-8
    Codec ID : S_TEXT/UTF8
    Codec ID/Info : UTF-8 Plain Text
    Duration : 1 h 17 min
    Bit rate : 27 b/s
    Count of elements : 669
    Stream size : 15.7 KiB (0%)
    Title : Sub English SRT
    Language : English
    Default : No
    Forced : No

    Menu
    00:00:00.000 : Chapter 01
    00:09:45.208 : Chapter 02
    00:21:51.541 : Chapter 03
    00:31:17.500 : Chapter 04
    00:40:06.541 : Chapter 05
    00:51:39.708 : Chapter 06
    00:59:19.541 : Chapter 07
    01:03:44.958 : Chapter 08
    01:09:34.583 : Chapter 09
    01:12:39.750 : Chapter 10
    01:18:34.083 : Chapter 11
    01:24:41.000 : Chapter 12






    คําบรรยายที่แปลโดย ชินทราน01
    Download:filecondo
    http://www.filecondo.com/dl.php?f=g1bebf1Mq5vq
    Download:cornfile
    https://www.cornfile.com/odjnrblhckd4

  2. The Following 5 Users Say Thank You to Duckload.us For This Useful Post:

    jackjangri (09-16-2021), Jodz14 (เมื่อวานนี้), mettset (09-16-2021), noi54 (09-15-2021), Wesker_TOT (09-15-2021)

  3. #2
    Senior Member
    สมัครเมื่อ
    Dec 2013
    โพสต์
    3,182
    Thanks
    5,096
    Thanked 0 Times in 0 Posts
    ขอบคุณครับ...

  4. #3
    Senior Member
    สมัครเมื่อ
    Jun 2011
    โพสต์
    336
    Thanks
    488
    Thanked 40 Times in 29 Posts
    ขอบคุณครับ

+ ตอบกลับกระทู้

ข้อมูลกระทู้

Users Browsing this Thread

ในขณะนี้มี 1 ท่านดูกระทู้อยู่. (0 สมาชิกและ 1 ผู้เยี่ยมชม)

     

กฎการโพสต์ข้อความ

  • ท่าน ไม่สามารถ ตั้งกระทู้ใหม่ได้
  • ท่าน ไม่สามารถ ตอบกระทู้ได้
  • ท่าน ไม่สามารถ แนบไฟล์ได้
  • ท่าน ไม่สามารถ แก้ไขข้อความโพสต์ได้
  • BB code สถานะ เปิด
  • Smilies สถานะ เปิด
  • [IMG] สถานะ เปิด
  • HTML สถานะ ปิด