+ ตอบกลับกระทู้
สรุปผลการค้นหา 1 ถึง 2 จากทั้งหมด 2
  1. #1
    Administrators รูปส่วนตัว Duckload.us
    สมัครเมื่อ
    Dec 2010
    โพสต์
    132,355
    Thanks
    7
    Thanked 135,959 Times in 60,119 Posts

    Thumbs up [ฝรั่ง]-Prisoners Of The Ghostland (2021) ปฏิบัติการถล่มแดนซามูไร-WEB-DL.H.264.1080p. [Master]-[Soundtrack 5.1 บรรยายไทย (แปล)]



    อาชญากรที่มีชื่อเสียงต้องทำลายคำสาปชั่วร้าย
    เพื่อช่วยหญิงสาวที่ถูกลักพาตัวซึ่งหายตัวไปอย่างลึก ลับ

    Format : Matroska
    Format version : Version 4
    File size : 5.02 GiB
    Duration : 1 h 42 min
    Overall bit rate : 6 995 kb/s
    Encoded date : UTC 2021-09-15 08:43:56
    Writing application : mkvmerge v45.0.0 ('Heaven in Pennies') 64-bit
    Writing library : libebml v1.3.10 + libmatroska v1.5.2

    Video
    ID : 1
    Format : AVC
    Format/Info : Advanced Video Codec
    Format profile : [email protected]
    Format settings : CABAC / 5 Ref Frames
    Format settings, CABAC : Yes
    Format settings, Reference frames : 5 frames
    Codec ID : V_MPEG4/ISO/AVC
    Duration : 1 h 42 min
    Bit rate : 6 609 kb/s
    Width : 1 920 pixels
    Height : 798 pixels
    Display aspect ratio : 2.40:1
    Frame rate mode : Constant
    Frame rate : 23.976 (23976/1000) FPS
    Color space : YUV
    Chroma subsampling : 4:2:0
    Bit depth : 8 bits
    Scan type : Progressive
    Bits/(Pixel*Frame) : 0.180
    Stream size : 4.75 GiB (94%)
    Default : Yes
    Forced : No
    Color range : Limited
    Color primaries : BT.709
    Transfer characteristics : BT.709
    Matrix coefficients : BT.709

    Audio
    ID : 2
    Format : AC-3
    Format/Info : Audio Coding 3
    Commercial name : Dolby Digital
    Codec ID : A_AC3
    Duration : 1 h 42 min
    Bit rate mode : Constant
    Bit rate : 384 kb/s
    Channel(s) : 6 channels
    Channel layout : L R C LFE Ls Rs
    Sampling rate : 48.0 kHz
    Frame rate : 31.250 FPS (1536 SPF)
    Compression mode : Lossy
    Stream size : 282 MiB (5%)
    Title : English
    Language : English
    Service kind : Complete Main
    Default : No
    Forced : No

    Text #1
    ID : 3
    Format : UTF-8
    Codec ID : S_TEXT/UTF8
    Codec ID/Info : UTF-8 Plain Text
    Duration : 1 h 35 min
    Bit rate : 68 b/s
    Count of elements : 833
    Stream size : 47.9 KiB (0%)
    Title : Thai
    Language : Thai
    Default : Yes
    Forced : Yes

    Text #2
    ID : 4
    Format : UTF-8
    Codec ID : S_TEXT/UTF8
    Codec ID/Info : UTF-8 Plain Text
    Duration : 1 h 35 min
    Bit rate : 27 b/s
    Count of elements : 832
    Stream size : 19.1 KiB (0%)
    Title : English [Full]
    Language : English
    Default : No
    Forced : No

    Text #3
    ID : 5
    Format : UTF-8
    Codec ID : S_TEXT/UTF8
    Codec ID/Info : UTF-8 Plain Text
    Duration : 1 h 32 min
    Bit rate : 4 b/s
    Count of elements : 120
    Stream size : 3.17 KiB (0%)
    Title : English [Forced]
    Language : English
    Default : No
    Forced : No





    บรรยายไทย - Nattaphon P.
    Download:filecondo
    http://www.filecondo.com/dl.php?f=G7eff41MqsU7
    Download:cornfile
    https://www.cornfile.com/agef7cqdx698

  2. The Following 2 Users Say Thank You to Duckload.us For This Useful Post:

    jackjangri (09-16-2021), NaiWan (09-16-2021)

  3. #2
    Senior Member
    สมัครเมื่อ
    Jun 2011
    โพสต์
    357
    Thanks
    509
    Thanked 40 Times in 29 Posts
    thank you...

+ ตอบกลับกระทู้

ข้อมูลกระทู้

Users Browsing this Thread

ในขณะนี้มี 1 ท่านดูกระทู้อยู่. (0 สมาชิกและ 1 ผู้เยี่ยมชม)

     

กฎการโพสต์ข้อความ

  • ท่าน ไม่สามารถ ตั้งกระทู้ใหม่ได้
  • ท่าน ไม่สามารถ ตอบกระทู้ได้
  • ท่าน ไม่สามารถ แนบไฟล์ได้
  • ท่าน ไม่สามารถ แก้ไขข้อความโพสต์ได้
  • BB code สถานะ เปิด
  • Smilies สถานะ เปิด
  • [IMG] สถานะ เปิด
  • HTML สถานะ ปิด