+ ตอบกลับกระทู้
สรุปผลการค้นหา 1 ถึง 2 จากทั้งหมด 2
  1. #1
    Administrators รูปส่วนตัว Duckload.us
    สมัครเมื่อ
    Dec 2010
    โพสต์
    132,379
    Thanks
    7
    Thanked 135,975 Times in 60,128 Posts

    Thumbs up [ฝรั่ง]-[NETFLIX] Nightbooks (2021) ไนต์บุ๊คส์-WEB-DL.EAC-3.Atmos.1080p. [Netflix (web-dl)]-[พากย์อังกฤษ Atmos 5.1 บรรยายไทย (Master)-อังกฤษ]




    แฟนเรื่องสยองขวัญตัวยงอย่างอเล็กซ์ต้องเป็นฝ่ายเล่า เรื่องกระตุกขวัญทุกคืน ไม่เช่นนั้นเขากับเพื่อนใหม่จะต้องติดอยู่ในอพาร์ตเม นต์อาถรรพ์ของแม่มดผู้ชั่วร้ายไปตลอดกาล


    Format : Matroska
    Format version : Version 4
    File size : 4.10 GiB
    Duration : 1 h 43 min
    Overall bit rate : 5 695 kb/s
    Encoded date : UTC 2021-09-15 11:39:01
    Writing application : mkvmerge v61.0.0 ('So') 64-bit
    Writing library : libebml v1.4.2 + libmatroska v1.6.4

    Video
    ID : 1
    Format : AVC
    Format/Info : Advanced Video Codec
    Format profile : [email protected]
    Format settings : CABAC / 3 Ref Frames
    Format settings, CABAC : Yes
    Format settings, Reference : 3 frames
    Codec ID : V_MPEG4/ISO/AVC
    Duration : 1 h 43 min
    Bit rate : 4 877 kb/s
    Width : 1 920 pixels
    Height : 800 pixels
    Display aspect ratio : 2.40:1
    Frame rate mode : Constant
    Frame rate : 23.976 (24000/1001) FPS
    Color space : YUV
    Chroma subsampling : 4:2:0
    Bit depth : 8 bits
    Scan type : Progressive
    Bits/(Pixel*Frame) : 0.132
    Stream size : 3.52 GiB (86%)
    Language : English
    Default : Yes
    Forced : No

    Audio
    ID : 2
    Format : E-AC-3 JOC
    Format/Info : Enhanced AC-3 with Joint Object Coding
    Commercial name : Dolby Digital Plus with Dolby Atmos
    Codec ID : A_EAC3
    Duration : 1 h 43 min
    Bit rate mode : Constant
    Bit rate : 768 kb/s
    Channel(s) : 6 channels
    Channel layout : L R C LFE Ls Rs
    Sampling rate : 48.0 kHz
    Frame rate : 31.250 FPS (1536 SPF)
    Compression mode : Lossy
    Stream size : 567 MiB (13%)
    Title : E-AC3 Atmos English
    Language : English
    Service kind : Complete Main
    Default : Yes
    Forced : No
    Complexity index : 16
    Number of dynamic objects : 15
    Bed channel count : 1 channel
    Bed channel configuration : LFE

    Text #1
    ID : 3
    Format : VobSub
    Muxing mode : zlib
    Codec ID : S_VOBSUB
    Codec ID/Info : Picture based subtitle format used on DVDs
    Duration : 1 h 40 min
    Bit rate : 9 221 b/s
    Count of elements : 1094
    Stream size : 6.60 MiB (0%)
    Title : Sub Thai 1080p
    Language : Thai
    Default : No
    Forced : No

    Text #2
    ID : 4
    Format : UTF-8
    Codec ID : S_TEXT/UTF8
    Codec ID/Info : UTF-8 Plain Text
    Duration : 1 h 40 min
    Bit rate : 95 b/s
    Count of elements : 1094
    Stream size : 69.7 KiB (0%)
    Title : Sub Thai SRT
    Language : Thai
    Default : No
    Forced : No

    Text #3
    ID : 5
    Format : PGS
    Muxing mode : zlib
    Codec ID : S_HDMV/PGS
    Codec ID/Info : Picture based subtitle format used on BDs/HD-DVDs
    Duration : 1 h 40 min
    Bit rate : 26.2 kb/s
    Count of elements : 2188
    Stream size : 18.8 MiB (0%)
    Title : Sub Thai PGS
    Language : Thai
    Default : No
    Forced : No

    Text #4
    ID : 6
    Format : PGS
    Muxing mode : zlib
    Codec ID : S_HDMV/PGS
    Codec ID/Info : Picture based subtitle format used on BDs/HD-DVDs
    Duration : 1 h 40 min
    Bit rate : 45.7 kb/s
    Count of elements : 2188
    Stream size : 32.7 MiB (1%)
    Title : Sub Thai PGS NETFLIX
    Language : Thai
    Default : Yes
    Forced : No

    Text #5
    ID : 7
    Format : UTF-8
    Codec ID : S_TEXT/UTF8
    Codec ID/Info : UTF-8 Plain Text
    Duration : 1 h 35 min
    Bit rate : 60 b/s
    Count of elements : 1514
    Stream size : 42.5 KiB (0%)
    Title : Sub English SRT
    Language : English
    Default : No
    Forced : No






    Download:filecondo
    http://www.filecondo.com/dl.php?f=T363f91MquNX
    Download:cornfile
    https://www.cornfile.com/gzq2gkx95lmq

  2. The Following 2 Users Say Thank You to Duckload.us For This Useful Post:

    jackjangri (09-16-2021), Jodz14 (09-17-2021)

  3. #2
    Senior Member
    สมัครเมื่อ
    Jun 2011
    โพสต์
    357
    Thanks
    509
    Thanked 40 Times in 29 Posts
    thank you...

+ ตอบกลับกระทู้

ข้อมูลกระทู้

Users Browsing this Thread

ในขณะนี้มี 1 ท่านดูกระทู้อยู่. (0 สมาชิกและ 1 ผู้เยี่ยมชม)

     

กฎการโพสต์ข้อความ

  • ท่าน ไม่สามารถ ตั้งกระทู้ใหม่ได้
  • ท่าน ไม่สามารถ ตอบกระทู้ได้
  • ท่าน ไม่สามารถ แนบไฟล์ได้
  • ท่าน ไม่สามารถ แก้ไขข้อความโพสต์ได้
  • BB code สถานะ เปิด
  • Smilies สถานะ เปิด
  • [IMG] สถานะ เปิด
  • HTML สถานะ ปิด