+ ตอบกลับกระทู้
สรุปผลการค้นหา 1 ถึง 1 จากทั้งหมด 1
  1. #1
    Administrators รูปส่วนตัว Duckload.us
    สมัครเมื่อ
    Dec 2010
    โพสต์
    139,860
    Thanks
    7
    Thanked 146,345 Times in 63,683 Posts

    Lightbulb [จีน]-One and Only (2021) ทุกชาติภพ กระดูกงดงาม ภาคอดีต Ep.01-24 จบ [1080p][ซับไทย]-WEB-DL.H.264.1080p. [Hi-def rip from Master]-[Soundtrack บรรยายไทย]



    ซีรีส์เรื่องนี้บอกเล่าเรื่องราวของชุยสืออี๋ (รับบทโดย ไป๋ลู่) ว่าที่พระชายาองค์รัชทายาท ผู้อาวุโสส่งเธอมาเล่าเรียนที่สำนักศิลปะจวนอ๋อง ด้วยความที่ได้ใกล้ชิดกัน เธอตกหลุมรักอ๋องน้อยหนานเฉินโจวเซิงเฉิน (รับบทโดย เริ่นเจียหลุน) อย่างไม่รู้ตัว ความสัมพันธ์ของทั้งสองพัฒนาขึ้นอย่างรวดเร็ว แต่ยังอยู่ภายใต้ความสำรวม ต่อมาชุยสืออี๋ถูกบังคับให้แต่งงานกับองค์รัชทายาท ขณะเดียวกันโจวเซิงเฉินก็ได้รับบาดเจ็บสาหัสในการเป็ นผู้นำทัพ และเสียชีวิตลงหลังจากทิ้งคำพูดสุดท้ายไว้กับชุยสืออ

    Video
    ID : 1
    Format : AVC
    Format/Info : Advanced Video Codec
    Format profile : [email protected]
    Format settings : CABAC / 3 Ref Frames
    Format settings, CABAC : Yes
    Format settings, Reference : 3 frames
    Codec ID : V_MPEG4/ISO/AVC
    Duration : 44 min 11 s
    Bit rate : 1 854 kb/s
    Width : 1 920 pixels
    Height : 792 pixels
    Display aspect ratio : 2.40:1
    Frame rate mode : Constant
    Frame rate : 25.000 FPS
    Color space : YUV
    Chroma subsampling : 4:2:0
    Bit depth : 8 bits
    Scan type : Progressive
    Bits/(Pixel*Frame) : 0.049
    Stream size : 586 MiB (91%)
    Writing library : qiyi.com vtc-test
    Default : Yes
    Forced : No
    Color range : Limited
    Color primaries : BT.709
    Transfer characteristics : BT.709
    Matrix coefficients : BT.709

    Audio
    ID : 2
    Format : AAC LC
    Format/Info : Advanced Audio Codec Low Complexity
    Codec ID : A_AAC-2
    Duration : 44 min 11 s
    Bit rate : 192 kb/s
    Channel(s) : 2 channels
    Channel layout : L R
    Sampling rate : 44.1 kHz
    Frame rate : 43.066 FPS (1024 SPF)
    Compression mode : Lossy
    Stream size : 60.0 MiB (9%)
    Default : Yes
    Forced : No

    Text #1
    ID : 3
    Format : ASS
    Codec ID : S_TEXT/ASS
    Codec ID/Info : Advanced Sub Station Alpha
    Duration : 39 min 21 s
    Bit rate : 148 b/s
    Count of elements : 501
    Compression mode : Lossless
    Stream size : 42.9 KiB (0%)
    Title : Thai Spark (Pc)
    Language : Thai
    Default : No
    Forced : No

    Text #2
    ID : 4
    Format : ASS
    Codec ID : S_TEXT/ASS
    Codec ID/Info : Advanced Sub Station Alpha
    Duration : 39 min 21 s
    Bit rate : 148 b/s
    Count of elements : 501
    Compression mode : Lossless
    Stream size : 42.9 KiB (0%)
    Title : Thai Spark (TV)
    Language : Thai
    Default : No
    Forced : No

    Text #3
    ID : 5
    Format : UTF-8
    Codec ID : S_TEXT/UTF8
    Codec ID/Info : UTF-8 Plain Text
    Duration : 39 min 21 s
    Bit rate : 111 b/s
    Count of elements : 501
    Stream size : 32.2 KiB (0%)
    Title : Thai Spark (Srt)
    Language : Thai
    Default : No
    Forced : No

















    01 http://www.filecondo.com/dl.php?f=h5d2291Mo10t
    02 http://www.filecondo.com/dl.php?f=cb8d041Mo11r
    03 http://www.filecondo.com/dl.php?f=I018501Mo12p
    04 http://www.filecondo.com/dl.php?f=r62a651Mo13n
    05 http://www.filecondo.com/dl.php?f=Hc5e471Mo14l
    06 http://www.filecondo.com/dl.php?f=Q303851Mo15j
    07 http://www.filecondo.com/dl.php?f=o6f3e41Mo16h
    08 http://www.filecondo.com/dl.php?f=2ac6fe1Mo17e
    09 http://www.filecondo.com/dl.php?f=u62cea1Mo18d
    10 http://www.filecondo.com/dl.php?f=w6481e1Mo19c
    11 http://www.filecondo.com/dl.php?f=sbbb8a1Mo1a9
    12 http://www.filecondo.com/dl.php?f=Bc5fe41Mo1b7
    13 http://www.filecondo.com/dl.php?f=a68dc51Mo1c6
    14 http://www.filecondo.com/dl.php?f=u844d61Mo1d3
    15 http://www.filecondo.com/dl.php?f=l419501Mo1e4
    16 http://www.filecondo.com/dl.php?f=S88ff61Mo1f0
    17 http://www.filecondo.com/dl.php?f=B2f1561Mo1fX
    18 http://www.filecondo.com/dl.php?f=c604281Mo1gV
    19 http://www.filecondo.com/dl.php?f=na06551Mo1hT
    20 http://www.filecondo.com/dl.php?f=c4359a1Mo1iS
    21 http://www.filecondo.com/dl.php?f=6126251Mo1jP
    22 http://www.filecondo.com/dl.php?f=ha58261Mo1kN
    23 http://www.filecondo.com/dl.php?f=H79a381Mo1lL
    24 http://www.filecondo.com/dl.php?f=xa773a1Mo1mK

  2. The Following 3 Users Say Thank You to Duckload.us For This Useful Post:

    alyssachia08 (09-22-2021), jinnejinn (09-18-2021), kappa (10-02-2022)

+ ตอบกลับกระทู้

ข้อมูลกระทู้

Users Browsing this Thread

ในขณะนี้มี 1 ท่านดูกระทู้อยู่. (0 สมาชิกและ 1 ผู้เยี่ยมชม)

     

กฎการโพสต์ข้อความ

  • ท่าน ไม่สามารถ ตั้งกระทู้ใหม่ได้
  • ท่าน ไม่สามารถ ตอบกระทู้ได้
  • ท่าน ไม่สามารถ แนบไฟล์ได้
  • ท่าน ไม่สามารถ แก้ไขข้อความโพสต์ได้
  • BB code สถานะ เปิด
  • Smilies สถานะ เปิด
  • [IMG] สถานะ เปิด
  • HTML สถานะ ปิด