+ ตอบกลับกระทู้
สรุปผลการค้นหา 1 ถึง 1 จากทั้งหมด 1
  1. #1
    Administrators รูปส่วนตัว Duckload.us
    สมัครเมื่อ
    Dec 2010
    โพสต์
    132,279
    Thanks
    7
    Thanked 135,866 Times in 60,074 Posts

    Lightbulb [ญี่ปุ่น]-JoJo no Kimyou na Bouken Season 1 โจโจ้ ล่าข้ามศตวรรษ ปี 1 [เสียง:ญี่ปุ่น Flac-ไทย Netflix AC-3][บรรยาย: ไทย PGS Netflix-อังกฤษ PGS]-Blu-ray.H.265.1080p. [rip from Master]-[พากย์ไทย บรรยายไทย]




    เรื่องราวเกิดขึ้นราวปลายศตวรรษที่ 19?”โจนาธาน โจสตาร์” เด็กหนุ่มผู้ถือกำเนิดในสกุลขุนนางอังกฤษที่มั่งคั่ง มีชีวิตที่หลายๆคนอิจฉา แต่แล้ววันหนึ่ง เมื่อ”จอร์จ โจสตาร์”ผู้เป็นพ่อของ “โจนาธาน” ได้พา”ดิโอ บรันโด้” เข้ามาอาศัยอยู่ในบ้านในฐานะบุตรบุญธรรมของตระกูลโจส ตาร์ ซึ่ง”ดิโอ บรันโด้”ผู้นี้แหละ คือผู้ที่จะมาทำให้ชีวิตอันแสนสงบสุขของเขาก็มีอันต้ องเปลี่ยนแปลงไปตลอดกาล…!!??และนี่คือจุดเริ่มต้นของ การต่อสู้ และการผจญภัยของสุภาพบุรุษตระกูลโจสตาร์ที่ประวัติศา สตร์ต้องจารึกชื่อพวกเขาไว้

    Video
    ID : 1
    Format : HEVC
    Format/Info : High Efficiency Video Coding
    Format profile : Main [email protected]@High
    Codec ID : V_MPEGH/ISO/HEVC
    Duration : 23 min 43 s
    Bit rate : 4 033 kb/s
    Width : 1 920 pixels
    Height : 1 080 pixels
    Display aspect ratio : 16:9
    Frame rate mode : Constant
    Frame rate : 23.976 (24000/1001) FPS
    Color space : YUV
    Chroma subsampling : 4:2:0
    Bit depth : 10 bits
    Bits/(Pixel*Frame) : 0.081
    Stream size : 684 MiB (83%)
    Writing library : x265 3.4+30-g6722fce1f:[Windows][GCC 10.2.0][64 bit] 10bit
    Encoding settings : cpuid=1111039 / frame-threads=5 / numa-pools=32 / wpp / no-pmode / no-pme / no-psnr / no-ssim / log-level=2 / input-csp=1 / input-res=1920x1080 / interlace=0 / level-idc=0 / high-tier=1 / uhd-bd=0 / ref=5 / no-allow-non-conformance / no-repeat-headers / annexb / no-aud / no-hrd / info / hash=0 / no-temporal-layers / no-open-gop / min-keyint=50 / keyint=360 / gop-lookahead=0 / bframes=8 / b-adapt=2 / b-pyramid / bframe-bias=0 / rc-lookahead=80 / lookahead-slices=4 / scenecut=40 / hist-scenecut=0 / radl=0 / no-splice / no-intra-refresh / ctu=32 / min-cu-size=8 / no-rect / no-amp / max-tu-size=32 / tu-inter-depth=2 / tu-intra-depth=2 / limit-tu=0 / rdoq-level=2 / dynamic-rd=0.00 / no-ssim-rd / signh-i-d-e / no-tskip / nr-intra=0 / nr-inter=0 / no-constrained-intra / no-strong-intra-smoothing / max-merge=3 / limit-refs=2 / limit-modes / me=3 / subme=4 / merange=44 / temporal-mvp / no-frame-dup / no-hme / weightp / weightb / no-analyze-src-pics / deblock=-1:-1 / no-sao / no-sao-non-deblock / rd=5 / selective-sao=0 / no-early-skip / rskip / no-fast-intra / no-tskip-fast / no-cu-lossless / b-intra / no-splitrd-skip / rdpenalty=0 / psy-rd=1.20 / psy-rdoq=2.00 / no-rd-refine / no-lossless / cbqpoffs=-2 / crqpoffs=-2 / rc=crf / crf=16.0 / qcomp=0.65 / qpstep=4 / stats-write=0 / stats-read=0 / vbv-maxrate=28000 / vbv-bufsize=35000 / vbv-init=0.9 / min-vbv-fullness=50.0 / max-vbv-fullness=80.0 / crf-max=0.0 / crf-min=0.0 / ipratio=1.40 / pbratio=1.30 / aq-mode=1 / aq-strength=0.80 / cutree / zone-count=0 / no-strict-cbr / qg-size=32 / no-rc-grain / qpmax=69 / qpmin=0 / no-const-vbv / sar=0 / overscan=0 / videoformat=5 / range=0 / colorprim=2 / transfer=1 / colormatrix=2 / chromaloc=0 / display-window=0 / cll=0,0 / min-luma=0 / max-luma=1023 / log2-max-poc-lsb=8 / vui-timing-info / vui-hrd-info / slices=1 / no-opt-qp-pps / no-opt-ref-list-length-pps / no-multi-pass-opt-rps / scenecut-bias=0.05 / hist-threshold=0.03 / no-opt-cu-delta-qp / no-aq-motion / no-hdr10 / no-hdr10-opt / no-dhdr10-opt / no-idr-recovery-sei / analysis-reuse-level=0 / analysis-save-reuse-level=0 / analysis-load-reuse-level=0 / scale-factor=0 / refine-intra=0 / refine-inter=0 / refine-mv=1 / refine-ctu-distortion=0 / no-limit-sao / ctu-info=0 / no-lowpass-dct / refine-analysis-type=0 / copy-pic=1 / max-ausize-factor=1.0 / no-dynamic-refine / no-single-sei / no-hevc-aq / no-svt / no-field / qp-adaptation-range=1.00 / no-scenecut-aware-qpconformance-window-offsets / right=0 / bottom=0 / decoder-max-rate=0 / no-vbv-live-multi-pass
    Language : Japanese
    Default : Yes
    Forced : No
    Color range : Limited
    Transfer characteristics : BT.709

    Audio #1
    ID : 2
    Format : FLAC
    Format/Info : Free Lossless Audio Codec
    Codec ID : A_FLAC
    Duration : 23 min 43 s
    Bit rate mode : Variable
    Bit rate : 709 kb/s
    Channel(s) : 2 channels
    Channel layout : L R
    Sampling rate : 48.0 kHz
    Frame rate : 11.719 FPS (4096 SPF)
    Bit depth : 16 bits
    Compression mode : Lossless
    Stream size : 120 MiB (15%)
    Title : [Flac-Japanese]
    Writing library : libFLAC 1.3.2 (UTC 2017-01-01)
    Language : Japanese
    Default : No
    Forced : No

    Audio #2
    ID : 3
    Format : E-AC-3
    Format/Info : Enhanced AC-3
    Commercial name : Dolby Digital Plus
    Codec ID : A_EAC3
    Duration : 23 min 42 s
    Bit rate mode : Constant
    Bit rate : 96.0 kb/s
    Channel(s) : 2 channels
    Channel layout : L R
    Sampling rate : 48.0 kHz
    Frame rate : 31.250 FPS (1536 SPF)
    Compression mode : Lossy
    Delay relative to video : 16 ms
    Stream size : 16.3 MiB (2%)
    Title : [AC-3-Thai]
    Language : Thai
    Service kind : Complete Main
    Default : Yes
    Forced : No

    Text #1
    ID : 4
    Format : PGS
    Muxing mode : zlib
    Codec ID : S_HDMV/PGS
    Codec ID/Info : Picture based subtitle format used on BDs/HD-DVDs
    Duration : 23 min 41 s
    Bit rate : 57.6 kb/s
    Count of elements : 842
    Stream size : 9.76 MiB (1%)
    Title : [Thai Netflix PGS]
    Language : Thai
    Default : Yes
    Forced : No

    Text #2
    ID : 5
    Format : PGS
    Muxing mode : zlib
    Codec ID : S_HDMV/PGS
    Codec ID/Info : Picture based subtitle format used on BDs/HD-DVDs
    Duration : 23 min 40 s
    Bit rate : 28.8 kb/s
    Count of elements : 676
    Stream size : 4.88 MiB (1%)
    Title : English [Full] (PGS)
    Language : English
    Default : No
    Forced : No

    Text #3
    ID : 6
    Format : PGS
    Muxing mode : zlib
    Codec ID : S_HDMV/PGS
    Codec ID/Info : Picture based subtitle format used on BDs/HD-DVDs
    Duration : 23 min 40 s
    Bit rate : 354 b/s
    Count of elements : 10
    Stream size : 61.5 KiB (0%)
    Title : English [Signs/Songs] (PGS)
    Language : Japanese
    Default : No
    Forced : No

    Menu
    00:00:00.007 : :Chapter 01
    00:06:32.190 : :Chapter 02
    00:12:33.634 : :Chapter 03
    00:21:56.113 : :Chapter 04
    00:23:26.203 : :Chapter 05








    01
    http://www.filecondo.com/dl.php?f=S2ba611MqTEi
    02
    http://www.filecondo.com/dl.php?f=Ed43f31MqTFh
    03
    http://www.filecondo.com/dl.php?f=75b43b1MqTGg
    04
    http://www.filecondo.com/dl.php?f=423b8c1MqTHd
    05
    http://www.filecondo.com/dl.php?f=o94d4e1MqTIc
    06
    http://www.filecondo.com/dl.php?f=Bd124d1MqTJ9
    07
    http://www.filecondo.com/dl.php?f=m2ba651MqTK6
    08
    http://www.filecondo.com/dl.php?f=k33cd81MqTL5
    09
    http://www.filecondo.com/dl.php?f=da5b0a1MqTM3
    10
    http://www.filecondo.com/dl.php?f=Sa92d71MqTN1
    11
    http://www.filecondo.com/dl.php?f=vdfdf11MqTO0
    12
    http://www.filecondo.com/dl.php?f=Q72ae51MqTOY
    13
    http://www.filecondo.com/dl.php?f=W9320d1MqTPY
    14
    http://www.filecondo.com/dl.php?f=Z6e8911MqTQU
    15
    http://www.filecondo.com/dl.php?f=n18ead1MqTRT
    16
    http://www.filecondo.com/dl.php?f=h39ea41MqTSS
    17
    http://www.filecondo.com/dl.php?f=vd985b1MqTTY
    18
    http://www.filecondo.com/dl.php?f=h871001MqTVt
    19
    http://www.filecondo.com/dl.php?f=Vd7e151MqTVZ
    20
    http://www.filecondo.com/dl.php?f=wc74da1MqTWK
    21
    http://www.filecondo.com/dl.php?f=z882ba1MqTXG
    22
    http://www.filecondo.com/dl.php?f=A02b761MqTYQ
    23
    http://www.filecondo.com/dl.php?f=ra93c71MqTZE
    24
    http://www.filecondo.com/dl.php?f=5a6cd81MqU0B
    25
    http://www.filecondo.com/dl.php?f=o44c531MqU1B
    26
    http://www.filecondo.com/dl.php?f=199d521MqU2y

  2. The Following User Says Thank You to Duckload.us For This Useful Post:

    aemjan (09-18-2021)

+ ตอบกลับกระทู้

ข้อมูลกระทู้

Users Browsing this Thread

ในขณะนี้มี 1 ท่านดูกระทู้อยู่. (0 สมาชิกและ 1 ผู้เยี่ยมชม)

     

กฎการโพสต์ข้อความ

  • ท่าน ไม่สามารถ ตั้งกระทู้ใหม่ได้
  • ท่าน ไม่สามารถ ตอบกระทู้ได้
  • ท่าน ไม่สามารถ แนบไฟล์ได้
  • ท่าน ไม่สามารถ แก้ไขข้อความโพสต์ได้
  • BB code สถานะ เปิด
  • Smilies สถานะ เปิด
  • [IMG] สถานะ เปิด
  • HTML สถานะ ปิด