+ ตอบกลับกระทู้
สรุปผลการค้นหา 1 ถึง 2 จากทั้งหมด 2
  1. #1
    Administrators รูปส่วนตัว Duckload.us
    สมัครเมื่อ
    Dec 2010
    โพสต์
    132,379
    Thanks
    7
    Thanked 135,975 Times in 60,128 Posts

    Thumbs up [ฝรั่ง]-[AMAZON] Candyman (2021) ไอ้มือตะขอ!-WEB-DL.EAC-3.1080p. [Modified]-[พากย์อังกฤษ 5.1 บรรยายไทย (แปล)-อังกฤษ]



    เท่าที่ผู้พักอาศัยสามารถจำความได้ โครงการที่อยู่อาศัยของคาบรินี่ กรีน ในชิคาโก ถูกคุกคามโดยเรื่องผีที่เล่าแบบปากต่อปากเกี่ยวกับนั กฆ่าเหนือธรรมชาติที่มีตะขออยู่ในมือ ที่ถูกเรียกมาอย่างง่ายดาย เพียงยืนอยู่หน้ากระจกแล้วเรียกชื่อของเขา 5 ครั้ง ในปัจจุบัน หลังจากที่อาคารคาบรินีแห่งสุดท้ายถูกทำลายเมื่อทศวร รษที่ผ่านมา ศิลปินแนววิชวล แอนโธนี่ แม็คคอย (ยาห์ย่า อับดุล-มาทีน ที่ 2) และ เบรียน่า คาร์ทไรท์ (เทโยนาห์ พาร์ริส) ผู้อำนวยการแกลลอรี่ ซึ่งเป็นแฟนของเขา ย้ายไปอาศัยในคอนโดสุดหรูสไตล์ลอฟท์ในคาบรินี่ ซึ่งได้รับการปรับปรุงและมีเหล่าหนุ่มสาวมิลเลนเนียล พักอาศัยอยู่ ด้วยอาชีพการเป็นจิตรกรที่ไม่ค่อยรุ่งสักเท่าไหร่ วันหนึ่ง เขาได้เจอกับคนเก่าแก่ของคาบรินี่ วิลเลี่ยม เบิร์ค (โคลแมน โดมิงโก้) ที่ได้เปิดเผยต่อ แอนโธนี่ เกี่ยวกับธรรมชาติของความสะพรึงของเรื่องจริงเกี่ยวก ับ แคนดี้แมน จนทำให้ แอนโธนี่ เริ่มค้นหาข้อมูลอันน่าขนลุกในสตูดิโอของเขาเช่นเดีย วกับความสดใหม่สำหรับภาพวาด ในขณะที่ต้องรักษาสถานะในโลกศิลปะในชิคาโก เป็นการเปิดประตูสู่อดีตที่ซับซ้อนที่ปลดปล่อยความปก ติของจิตใจและกระแสความรุนแรงที่น่าสยดสยอง ที่ทำให้เขาเข้ามาสู่ความขัดแย้ง


    Format : Matroska
    Format version : Version 4
    File size : 4.29 GiB
    Duration : 1 h 31 min
    Overall bit rate : 6 742 kb/s
    Encoded date : UTC 2021-09-16 17:48:21
    Writing application : mkvmerge v61.0.0 ('So') 64-bit
    Writing library : libebml v1.4.2 + libmatroska v1.6.4

    Video
    ID : 1
    Format : AVC
    Format/Info : Advanced Video Codec
    Format profile : [email protected]
    Format settings : CABAC / 3 Ref Frames
    Format settings, CABAC : Yes
    Format settings, Reference : 3 frames
    Codec ID : V_MPEG4/ISO/AVC
    Duration : 1 h 31 min
    Bit rate : 6 081 kb/s
    Width : 1 920 pixels
    Height : 800 pixels
    Display aspect ratio : 2.40:1
    Frame rate mode : Constant
    Frame rate : 23.976 (24000/1001) FPS
    Color space : YUV
    Chroma subsampling : 4:2:0
    Bit depth : 8 bits
    Scan type : Progressive
    Bits/(Pixel*Frame) : 0.165
    Stream size : 3.87 GiB (90%)
    Language : English
    Default : Yes
    Forced : No
    Color range : Limited
    Color primaries : BT.709
    Transfer characteristics : BT.709
    Matrix coefficients : BT.709

    Audio
    ID : 2
    Format : E-AC-3
    Format/Info : Enhanced AC-3
    Commercial name : Dolby Digital Plus
    Codec ID : A_EAC3
    Duration : 1 h 31 min
    Bit rate mode : Constant
    Bit rate : 640 kb/s
    Channel(s) : 6 channels
    Channel layout : L R C LFE Ls Rs
    Sampling rate : 48.0 kHz
    Frame rate : 31.250 FPS (1536 SPF)
    Compression mode : Lossy
    Stream size : 417 MiB (9%)
    Title : E-AC3 English
    Language : English
    Service kind : Complete Main
    Default : Yes
    Forced : No

    Text #1
    ID : 3
    Format : VobSub
    Muxing mode : zlib
    Codec ID : S_VOBSUB
    Codec ID/Info : Picture based subtitle format used on DVDs
    Duration : 1 h 26 min
    Bit rate : 10.5 kb/s
    Count of elements : 1109
    Stream size : 6.47 MiB (0%)
    Title : Sub Thai 1080p
    Language : Thai
    Default : No
    Forced : No

    Text #2
    ID : 4
    Format : UTF-8
    Codec ID : S_TEXT/UTF8
    Codec ID/Info : UTF-8 Plain Text
    Duration : 1 h 26 min
    Bit rate : 109 b/s
    Count of elements : 1109
    Stream size : 69.1 KiB (0%)
    Title : Sub Thai SRT
    Language : Thai
    Default : No
    Forced : No

    Text #3
    ID : 5
    Format : PGS
    Muxing mode : zlib
    Codec ID : S_HDMV/PGS
    Codec ID/Info : Picture based subtitle format used on BDs/HD-DVDs
    Duration : 1 h 26 min
    Bit rate : 29.9 kb/s
    Count of elements : 2218
    Stream size : 18.4 MiB (0%)
    Title : Sub Thai PGS
    Language : Thai
    Default : Yes
    Forced : No

    Text #4
    ID : 6
    Format : UTF-8
    Codec ID : S_TEXT/UTF8
    Codec ID/Info : UTF-8 Plain Text
    Duration : 1 h 26 min
    Bit rate : 56 b/s
    Count of elements : 1255
    Stream size : 35.8 KiB (0%)
    Title : Sub English SRT
    Language : English
    Default : No
    Forced : No






    บรรยายไทย - อนันต์ โพธิสูง
    Download:filecondo
    http://www.filecondo.com/dl.php?f=K461cb1Mrake
    Download:cornfile
    https://www.cornfile.com/8x1x0y46hcnr

  2. The Following 2 Users Say Thank You to Duckload.us For This Useful Post:

    jackjangri (09-17-2021), NaiWan (09-18-2021)

  3. #2
    Senior Member
    สมัครเมื่อ
    Jun 2011
    โพสต์
    357
    Thanks
    509
    Thanked 40 Times in 29 Posts
    thank you...

+ ตอบกลับกระทู้

ข้อมูลกระทู้

Users Browsing this Thread

ในขณะนี้มี 1 ท่านดูกระทู้อยู่. (0 สมาชิกและ 1 ผู้เยี่ยมชม)

     

กฎการโพสต์ข้อความ

  • ท่าน ไม่สามารถ ตั้งกระทู้ใหม่ได้
  • ท่าน ไม่สามารถ ตอบกระทู้ได้
  • ท่าน ไม่สามารถ แนบไฟล์ได้
  • ท่าน ไม่สามารถ แก้ไขข้อความโพสต์ได้
  • BB code สถานะ เปิด
  • Smilies สถานะ เปิด
  • [IMG] สถานะ เปิด
  • HTML สถานะ ปิด