+ ตอบกลับกระทู้
สรุปผลการค้นหา 1 ถึง 3 จากทั้งหมด 3
  1. #1
    Administrators รูปส่วนตัว Duckload.us
    สมัครเมื่อ
    Dec 2010
    โพสต์
    132,379
    Thanks
    7
    Thanked 135,975 Times in 60,128 Posts

    Thumbs up [ฝรั่ง]-Old.โอลด์.2021.(เอ็ม.ไนท์.ชยามาลาน).1080p.HC.HDRip .X264.AC3-[เสียงอังกฤษ Soundtrack]-[บรรยายไทย+อังกฤษ+ซับเกาหลีฝัง]-HDTV.H.264.1080p. [Modified]-[Soundtrack บรรยายไทย (แปล)]



    หากยุคนี้มีชื่อของ คริสโตเฟอร์ โนแลน, เอรี แอสเตอร์, เจมส์ กันน์, เดอนี วิลเนิฟว์, เอ็ดการ์ ไรท์ หรือแม้แต่ บองจุงโฮ เป็นผู้กำกับภาพยนตร์ของยุคนี้
    ในช่วงต้นศตวรรษก่อนก็ย่อมมีชื่อของ เอ็ม. ไนท์ ชยามาลาน เป็นผู้กำกับภาพยนตร์ที่สร้างปรากฎการณ์ด้วยเรื่อง The Sixth Sense
    และสร้างผลงานระทึกขวัญที่บอกเล่าเรื่องครอบครัวมากม าย ซึ่งถึงแม้ในทศวรรษที่ผ่านมาจะล้มเหลวมากก็ตาม
    แต่อย่างผลงานล่าสุดอย่างซีรี่ส์ Servant ทาง Apple TV+ ก็ได้รับเสียงชื่นชมไม่น้อย

    Old จะเล่าเรื่องราวของคนกลุ่มหนึ่งที่ออกไปพักร้อนกันที ่ชายหาดอันเงียบสงบเงียบ
    แต่แล้วเรื่องลึกลับชวนขนลุกก็เกิดขึ้นเมื่อพวกเขาพบ ศพบนชายหาดแห่งนั้น
    และดูเหมือนว่ามีพลังลึกลับบางอย่างเร่งอายุของพวกเข าให้เดินหน้าเร็วขึ้นอย่างหยุดไม่ได้
    เหมือนกับที่โปสเตอร์หนังเล่นกับภาพนาฬิกาทรายซึ่งปล ่อยออกมาก่อนหน้านี้
    ผู้กำกับเขียนบทหนังเรื่องนี้ตามแรงบันดาลใจจากนิยาย ภาพของฝรั่งเศสชื่อ “Sandcastle”
    ของ Pierre Oscar Levy กับ Frederik Peeters

    Format : Matroska
    Format version : Version 4
    File size : 4.89 GiB
    Duration : 1 h 48 min
    Overall bit rate : 6 460 kb/s
    Movie name : EVO
    Encoded date : UTC 2021-09-17 09:38:32
    Writing application : mkvmerge v61.0.0 ('So') 64-bit
    Writing library : libebml v1.4.2 + libmatroska v1.6.4
    Cover : Yes
    Attachments : cover

    Video
    ID : 1
    Format : AVC
    Format/Info : Advanced Video Codec
    Format profile : [email protected]
    Format settings : CABAC / 4 Ref Frames
    Format settings, CABAC : Yes
    Format settings, Reference : 4 frames
    Codec ID : V_MPEG4/ISO/AVC
    Duration : 1 h 48 min
    Bit rate : 6 040 kb/s
    Width : 1 920 pixels
    Height : 1 080 pixels
    Display aspect ratio : 16:9
    Frame rate mode : Constant
    Frame rate : 23.976 (24000/1001) FPS
    Color space : YUV
    Chroma subsampling : 4:2:0
    Bit depth : 8 bits
    Scan type : Progressive
    Bits/(Pixel*Frame) : 0.121
    Stream size : 4.57 GiB (93%)
    Default : Yes
    Forced : No

    Audio
    ID : 2
    Format : AC-3
    Format/Info : Audio Coding 3
    Commercial name : Dolby Digital
    Codec ID : A_AC3
    Duration : 1 h 48 min
    Bit rate mode : Constant
    Bit rate : 384 kb/s
    Channel(s) : 2 channels
    Channel layout : L R
    Sampling rate : 44.1 kHz
    Frame rate : 28.711 FPS (1536 SPF)
    Compression mode : Lossy
    Delay relative to video : 15 ms
    Stream size : 297 MiB (6%)
    Language : English
    Service kind : Complete Main
    Default : Yes
    Forced : No

    Text #1
    ID : 3
    Format : PGS
    Muxing mode : zlib
    Codec ID : S_HDMV/PGS
    Codec ID/Info : Picture based subtitle format used on BDs/HD-DVDs
    Duration : 1 h 40 min
    Bit rate : 31.1 kb/s
    Count of elements : 2838
    Stream size : 22.3 MiB (0%)
    Title : Thai-PGS
    Language : Thai
    Default : Yes
    Forced : No

    Text #2
    ID : 4
    Format : PGS
    Muxing mode : zlib
    Codec ID : S_HDMV/PGS
    Codec ID/Info : Picture based subtitle format used on BDs/HD-DVDs
    Duration : 1 h 39 min
    Bit rate : 40.3 kb/s
    Count of elements : 2836
    Stream size : 28.8 MiB (1%)
    Title : English-PGS
    Language : English
    Default : Yes
    Forced : No
















    Download:filecondo
    http://www.filecondo.com/dl.php?f=pc99991Mrclj
    Download:cornfile
    https://www.cornfile.com/312vyh07mmmz

  2. The Following 3 Users Say Thank You to Duckload.us For This Useful Post:

    NaiWan (09-18-2021), noi54 (09-18-2021), sawara (10-07-2021)

  3. #2
    Senior Member
    สมัครเมื่อ
    Jul 2013
    โพสต์
    2,790
    Thanks
    0
    Thanked 0 Times in 0 Posts
    ขอบคุณครับ

  4. #3
    Senior Member
    สมัครเมื่อ
    Dec 2013
    โพสต์
    520
    Thanks
    457
    Thanked 0 Times in 0 Posts
    ขอบคุณครับบ

+ ตอบกลับกระทู้

ข้อมูลกระทู้

Users Browsing this Thread

ในขณะนี้มี 1 ท่านดูกระทู้อยู่. (0 สมาชิกและ 1 ผู้เยี่ยมชม)

     

กฎการโพสต์ข้อความ

  • ท่าน ไม่สามารถ ตั้งกระทู้ใหม่ได้
  • ท่าน ไม่สามารถ ตอบกระทู้ได้
  • ท่าน ไม่สามารถ แนบไฟล์ได้
  • ท่าน ไม่สามารถ แก้ไขข้อความโพสต์ได้
  • BB code สถานะ เปิด
  • Smilies สถานะ เปิด
  • [IMG] สถานะ เปิด
  • HTML สถานะ ปิด