+ ตอบกลับกระทู้
สรุปผลการค้นหา 1 ถึง 5 จากทั้งหมด 5
  1. #1
    Administrators รูปส่วนตัว Duckload.us
    สมัครเมื่อ
    Dec 2010
    โพสต์
    132,390
    Thanks
    7
    Thanked 136,016 Times in 60,140 Posts

    Lightbulb [เกาหลี]-[Reunited Worlds อดีตรักพัดหวน Lee Yun Hee, Yeo Jin Goo, Ahn Jae Hyun, Lee Shi Un, Park Jin Joo TH Ep.1-20/End]-WEB-DL.H.264.1080p. [From HD-TV]-[Sound:Thai/Korea]-[Sub:Thai]





    ซีรี่ย์เกาหลี: Reunited Worlds
    ชื่อภาษาไทย: อดีตรักพัดหวน
    ประเภท: Fantasy, Romance, Comedy
    จำนวนตอน: 20
    นำแสดงโดย: Lee Yun Hee, Yeo Jin Goo, Ahn Jae Hyun, Lee Shi Un, Park Jin Joo
    ผู้กำกับ: Baek Soo Chan
    เขียนบทโดย: Lee Hee Myung
    ออกอากาศทางสถานีโทรทัศน์: VIU
    เริ่มออกอากาศ: -
    เวลาออกอากาศ: -
    นักแสดง:
    Lee Yun Hee as Jung Jung Won (31)
    Jung Chae Yun as Jung Jung Won (18)
    Yeo Jin Goo as Sung Hae Sung (19)
    Ahn Jae Hyun as Cha Min Joon (34)
    Hae Sung and Jung Won's friends
    Shin Soo Ho as Kil Moon Shik (31)
    Kim Min Sang as young Moon Shik
    Lee Shi Un as Shin Ho Bang (31)
    Park Sung Joon as young Ho Bang
    Kim Jin Woo as Cha Tae Hoon (31)
    Choi Soo Han as young Tae Hoon
    Park Jin Joo as Hong Jin Joo (31)
    Park Jin Soo as young Jin Joo
    Hae Sung's family
    Park Seung Tae as Hae Sung's grandma
    Yoon Sun Woo as Sung Young Joon (30)
    Park Joon Mok as young Young Joon
    Kim Ga Eun as Sung Young In (26)
    Lee Young Eun as child Young In
    Kwak Dong Yun as Sung Hae Chul (23)
    Jun Jin Seo as child Hae Chul
    Kim Hye Joon as Sung Soo Ji (19)
    Choi Yoo Ri as child Soo Ji
    ?? as Song Gong Joo (Hae Chul's daughter) (4)
    Others
    Ahn Kil Kang as Ahn Tae Bok
    Kim Young Kyung as loan shark (ep 2)
    Kim Dong Gyoon
    Park Young Kyu as Cha Kwon Pyo
    Bang Eun Hee as Yoon Mi Na
    Kyun Mi Ri as Son In Sun
    Seo Yi Sook as Jung Won's mother (ep 5)
    Sung Chang Hoon as Jang Sang Hoon
    Park Hyun Sook as Min Joon's aunt
    Han Eun Sun
    Sysopsis: ละครแนวแฟนตาซี โรแมนซ์ ที่มีเรื่องราวเกี่ยวกับ ชายหนุ่มวัย 18 ปี กับ หญิงสาววัย 31 ปี ซึ่งอาจจะมีแนวข้ามเวลามาเกี่ยวข้องด้วย ผลงานของคนเขียนบทละครชื่อดัง อีฮีมยอง เจ้าของผลงาน The Girl Who Sees Smells และ Beautiful Gong Shim
    เรื่องราวความรักของชายหนุ่มอายุ 19 ปีและหญิงสาวอายุ 31 ปี ทั้งสองคนเกิดปีเดียวกัน แต่อายุปัจจุบันห่างกันถึง 12 ปี เนื่องจากเติบโตมาคนละที่ (โลก) ซองแฮซอง (ยอจินกู) เกิดอุบัติเหตุและหายตัวไปอย่างลึกลับ 12 ปีต่อมา เขาปรากฏตัวขึ้นอีกครั้ง และขณะนี้เขาอายุได้ 31 ปีแล้ว แต่เขายังมีบุคลิกและนิสัยใจคอเหมือนเด็กอายุ 19 อยู่เลย ซองแฮซอง ตกหลุมรักกับเพื่อนสมัยเด็ก ชองจองวอน (อียอนฮี) ที่อายุ 31 ปี แต่ชองจองวอน ก็มีคนแอบชอบอยู่นั่นก็คือ ชามินจุน (อันแจฮยอน) หัวหน้าเชพร้านอาหารที่เธอทำงานอยู่ นอกจากนี้นักแสดงที่ร่วมแสดงในละครเรื่องนี้ ยังมี จองแชยอน DIA อีชีออน พัคจินจู อันกิลคัง ฯลฯ มาติดตามชมกันได้ในซีรีย์เกาหลี Reunited Worlds อดีตรักพัดหวน
    Credit: franky

    General
    Unique ID : 252495556368092017935621718630539496043 (0xBDF4E01292B3E214470EEFE56E688A6B)
    Complete name : C:UsersfrankyDownloadsReunited Worlds อดีตรักพัดหวนReunited.Worlds.2017.S01E09.1080p.NF. WEB-DL.DDP2.0.x264.mkv
    Format : Matroska
    Format version : Version 4
    File size : 2.20 GiB
    Duration : 1 h 3 min
    Overall bit rate mode : Variable
    Overall bit rate : 4 967 kb/s
    Encoded date : UTC 2021-06-28 09:31:08
    Writing application : mkvmerge v19.0.0 ('Brave Captain') 64-bit
    Writing library : libebml v1.3.5 + libmatroska v1.4.8

    Video
    ID : 1
    Format : AVC
    Format/Info : Advanced Video Codec
    Format profile : [email protected]
    Format settings : CABAC / 3 Ref Frames
    Format settings, CABAC : Yes
    Format settings, Reference fra : 3 frames
    Codec ID : V_MPEG4/ISO/AVC
    Duration : 1 h 3 min
    Bit rate mode : Variable
    Bit rate : 4 640 kb/s
    Maximum bit rate : 6 960 kb/s
    Width : 1 920 pixels
    Height : 1 080 pixels
    Display aspect ratio : 16:9
    Frame rate mode : Constant
    Frame rate : 23.976 (24000/1001) FPS
    Color space : YUV
    Chroma subsampling : 4:2:0
    Bit depth : 8 bits
    Scan type : Progressive
    Bits/(Pixel*Frame) : 0.093
    Stream size : 2.05 GiB (93%)
    Writing library : x264 core 148 r2715 7e75228
    Encoding settings : cabac=1 / ref=3 / deblock=1:0:0 / analyse=0x1:0x111 / me=umh / subme=10 / psy=1 / psy_rd=1.00:0.00 / mixed_ref=1 / me_range=24 / chroma_me=1 / trellis=2 / 8x8dct=0 / cqm=0 / deadzone=21,11 / fast_pskip=1 / chroma_qp_offset=-2 / threads=8 / lookahead_threads=1 / sliced_threads=0 / nr=0 / decimate=1 / interlaced=0 / bluray_compat=0 / stitchable=1 / constrained_intra=0 / bframes=2 / b_pyramid=0 / b_adapt=2 / b_bias=0 / direct=3 / weightb=1 / open_gop=0 / weightp=2 / keyint=250 / keyint_min=23 / scenecut=0 / intra_refresh=0 / rc_lookahead=48 / rc=2pass / mbtree=1 / bitrate=4640 / ratetol=1.0 / qcomp=0.50 / qpmin=6 / qpmax=51 / qpstep=4 / cplxblur=20.0 / qblur=0.5 / vbv_maxrate=6960 / vbv_bufsize=9280 / nal_hrd=vbr / filler=0 / ip_ratio=1.40 / aq=1:1.00
    Default : Yes
    Forced : No

    Audio #1
    ID : 2
    Format : AC-3
    Format/Info : Audio Coding 3
    Commercial name : Dolby Digital
    Codec ID : A_AC3
    Duration : 1 h 3 min
    Bit rate mode : Constant
    Bit rate : 192 kb/s
    Channel(s) : 2 channels
    Channel layout : L R
    Sampling rate : 48.0 kHz
    Frame rate : 31.250 FPS (1536 SPF)
    Compression mode : Lossy
    Stream size : 87.1 MiB (4%)
    Language : Thai
    Service kind : Complete Main
    Default : Yes
    Forced : No

    Audio #2
    ID : 3
    Format : E-AC-3
    Format/Info : Enhanced AC-3
    Commercial name : Dolby Digital Plus
    Codec ID : A_EAC3
    Duration : 1 h 3 min
    Bit rate mode : Constant
    Bit rate : 128 kb/s
    Channel(s) : 2 channels
    Channel layout : L R
    Sampling rate : 48.0 kHz
    Frame rate : 31.250 FPS (1536 SPF)
    Compression mode : Lossy
    Stream size : 58.1 MiB (3%)
    Language : Korean
    Service kind : Complete Main
    Default : No
    Forced : No

    Text #1
    ID : 4
    Format : UTF-8
    Codec ID : S_TEXT/UTF8
    Codec ID/Info : UTF-8 Plain Text
    Duration : 1 h 2 min
    Bit rate : 111 b/s
    Count of elements : 811
    Stream size : 51.3 KiB (0%)
    Language : Thai
    Default : Yes
    Forced : No

    Text #2
    ID : 5
    Format : PGS
    Muxing mode : zlib
    Codec ID : S_HDMV/PGS
    Codec ID/Info : Picture based subtitle format used on BDs/HD-DVDs
    Duration : 1 h 2 min
    Bit rate : 17.5 kb/s
    Count of elements : 1622
    Stream size : 7.82 MiB (0%)
    Language : Thai
    Default : No
    Forced : No



    Reunited.Worlds.2017.S01E20.END.1080p.NF.WEB-DL.DDP2.0.x264.mkv
    http://www.filecondo.com/dl.php?f=66d59f1MqwDZ
    เพิ่มTag
    2.71 GB 2021-09-15
    Reunited.Worlds.2017.S01E19.1080p.NF.WEB-DL.DDP2.0.x264.mkv
    http://www.filecondo.com/dl.php?f=j2a3831MqwCY
    เพิ่มTag
    2.02 GB 2021-09-15
    0
    0

    Reunited.Worlds.2017.S01E18.1080p.NF.WEB-DL.DDP2.0.x264.mkv
    http://www.filecondo.com/dl.php?f=d652121MqwC0
    เพิ่มTag
    2.09 GB 2021-09-15
    0
    0

    Reunited.Worlds.2017.S01E17.1080p.NF.WEB-DL.DDP2.0.x264.mkv
    http://www.filecondo.com/dl.php?f=z7d6311MqwB9
    เพิ่มTag
    1.94 GB 2021-09-15
    0
    0
    0
    0
    Reunited.Worlds.2017.S01E16.1080p.NF.WEB-DL.DDP2.0.x264.mkv
    http://www.filecondo.com/dl.php?f=1339fe1MqwzN
    เพิ่มTag
    1.91 GB 2021-09-15
    0
    0

    Reunited.Worlds.2017.S01E15.1080p.NF.WEB-DL.DDP2.0.x264.mkv
    http://www.filecondo.com/dl.php?f=R4db1e1Mqwyj
    เพิ่มTag
    2.65 GB 2021-09-15
    0
    0

    Reunited.Worlds.2017.S01E14.1080p.NF.WEB-DL.DDP2.0.x264.mkv
    http://www.filecondo.com/dl.php?f=h6a8711MqwvZ
    เพิ่มTag
    2.45 GB 2021-09-15
    0
    0

    Reunited.Worlds.2017.S01E13.1080p.NF.WEB-DL.DDP2.0.x264.mkv
    http://www.filecondo.com/dl.php?f=A95d4a1Mqwv2
    เพิ่มTag
    2.31 GB 2021-09-15
    0
    0

    Reunited.Worlds.2017.S01E12.1080p.NF.WEB-DL.DDP2.0.x264.mkv
    http://www.filecondo.com/dl.php?f=H7ca2d1MqwtY
    เพิ่มTag
    2.16 GB 2021-09-15
    0
    0

    Reunited.Worlds.2017.S01E11.1080p.NF.WEB-DL.DDP2.0.x264.mkv
    http://www.filecondo.com/dl.php?f=T518761Mqwsn
    เพิ่มTag
    2.75 GB 2021-09-15
    0
    0

    Reunited.Worlds.2017.S01E10.1080p.NF.WEB-DL.DDP2.0.x264.mkv
    http://www.filecondo.com/dl.php?f=X00a541Mqwrl
    เพิ่มTag
    2 GB 2021-09-15
    0
    0

    Reunited.Worlds.2017.S01E09.1080p.NF.WEB-DL.DDP2.0.x264.mkv
    http://www.filecondo.com/dl.php?f=79fcb81Mqwqq
    เพิ่มTag
    2.36 GB 2021-09-15
    0
    0

    Reunited.Worlds.2017.S01E08.1080p.NF.WEB-DL.DDP2.0.x264.mkv
    http://www.filecondo.com/dl.php?f=s376c81Mqwpq
    เพิ่มTag
    1.94 GB 2021-09-15
    0
    0

    Reunited.Worlds.2017.S01E07.1080p.NF.WEB-DL.DDP2.0.x264.mkv
    http://www.filecondo.com/dl.php?f=Se5b731Mqwoj
    เพิ่มTag
    2.39 GB 2021-09-15
    0
    0

    Reunited.Worlds.2017.S01E06.1080p.NF.WEB-DL.DDP2.0.x264.mkv
    http://www.filecondo.com/dl.php?f=Ddc5181Mqwn6
    เพิ่มTag
    2.17 GB 2021-09-15
    0
    0

    Reunited.Worlds.2017.S01E05.1080p.NF.WEB-DL.DDP2.0.x264.mkv
    http://www.filecondo.com/dl.php?f=o247851Mqwm9
    เพิ่มTag
    2.18 GB 2021-09-15
    0
    0

    Reunited.Worlds.2017.S01E04.1080p.NF.WEB-DL.DDP2.0.x264.mkv
    http://www.filecondo.com/dl.php?f=c28d181MqwkV
    เพิ่มTag
    3.1 GB 2021-09-15
    0
    0

    Reunited.Worlds.2017.S01E03.1080p.NF.WEB-DL.DDP2.0.x264.mkv
    http://www.filecondo.com/dl.php?f=fe30791MqwhX
    เพิ่มTag
    2.59 GB 2021-09-15
    0
    0

    Reunited.Worlds.2017.S01E02.1080p.NF.WEB-DL.DDP2.0.x264.mkv
    http://www.filecondo.com/dl.php?f=jab7d01Mqwej
    เพิ่มTag
    2.45 GB 2021-09-15
    0
    0

    Reunited.Worlds.2017.S01E01.1080p.NF.WEB-DL.DDP2.0.x264.mkv
    http://www.filecondo.com/dl.php?f=xd02a11Mqw9I
    เพิ่มTag
    2.62 GB 2021-09-15

  2. #2
    Member
    สมัครเมื่อ
    Jun 2018
    โพสต์
    39
    Thanks
    0
    Thanked 0 Times in 0 Posts
    ขอบคุณมากๆครับ
    แต่ยังขาดตอนที่ 17 , 18 , 19 ครับ
    รบกวนด้วยครับ

  3. #3
    Administrators รูปส่วนตัว Duckload.us
    สมัครเมื่อ
    Dec 2010
    โพสต์
    132,390
    Thanks
    7
    Thanked 136,016 Times in 60,140 Posts
    อ้างอิง โพสต์ต้นฉบับโดยคุณ jiradech ดูโพสต์
    ขอบคุณมากๆครับ
    แต่ยังขาดตอนที่ 17 , 18 , 19 ครับ
    รบกวนด้วยครับ
    เรียนแจ้ง แก้ไขแล้วครับ

  4. #4
    Senior Member
    สมัครเมื่อ
    Jul 2013
    โพสต์
    2,790
    Thanks
    0
    Thanked 0 Times in 0 Posts
    ขอบคุณครับผม

  5. #5
    Senior Member
    สมัครเมื่อ
    Dec 2011
    โพสต์
    2,613
    Thanks
    168
    Thanked 0 Times in 0 Posts
    Thank you ka

+ ตอบกลับกระทู้

ข้อมูลกระทู้

Users Browsing this Thread

ในขณะนี้มี 1 ท่านดูกระทู้อยู่. (0 สมาชิกและ 1 ผู้เยี่ยมชม)

     

กฎการโพสต์ข้อความ

  • ท่าน ไม่สามารถ ตั้งกระทู้ใหม่ได้
  • ท่าน ไม่สามารถ ตอบกระทู้ได้
  • ท่าน ไม่สามารถ แนบไฟล์ได้
  • ท่าน ไม่สามารถ แก้ไขข้อความโพสต์ได้
  • BB code สถานะ เปิด
  • Smilies สถานะ เปิด
  • [IMG] สถานะ เปิด
  • HTML สถานะ ปิด