+ ตอบกลับกระทู้
สรุปผลการค้นหา 1 ถึง 3 จากทั้งหมด 3
  1. #1
    Administrators รูปส่วนตัว Duckload.us
    สมัครเมื่อ
    Dec 2010
    โพสต์
    132,355
    Thanks
    7
    Thanked 135,961 Times in 60,119 Posts

    Thumbs up [เกาหลี]-Miss.and.Mrs.Cops.2019.KOREAN.1080p.BluRay.x265 - [พากย์ไทย PCM 5.1+เกาหลี 5.1] - [บรรยายอังกฤษ]-Blu-ray.H.264.1080p. [Modified]-[พากย์ไทย (Master)]






    Miss & Mrs. Cops เป็นภาพยนตร์แนวสืบสวน แอคชัน คอมมาดี เล่าเรื่องตำรวจผู้หญิงสองคนที่ทำงานอยู่สำนักบริการ
    แต่แอบสวมบทตำรวจสืบสวน ช่วยกันทำคดีผู้หญิงคนหนึ่งที่ถูกคุกคามสวัสดิภาพ หนึ่งเป็นอดีตทีมตำรวจหญิงมือดี ที่ถูกปลดมาอยู่ที่นี่เพราะเธอมีครอบครัว
    อีกหนึ่งเป็นตำรวจใหม่ไฟแรงแต่มักทำงานพลาด เลยโดนทำโทษมาอยู่ที่นี่ ความจริงที่ว่าทั้งคู่ก็ดองญาติกันอยู่ เป็นพี่สะใภ้-น้องสามี ที่มีฮึ่มๆกันในบ้านบ้าง แต่พอมาออกภาคสนามเป็นคู่หูกลับเข้ากันอย่างลงตัว

    พัคมียอง (รับบทโดย รามีรัน) เคยเป็นตำรวจหญิงในลุคเสื้อหนังสีดำแมนๆคอยวิ่งไล่จั บผู้ร้าย เธอเข้ามาในสายอาชีพนี้ด้วยการสมัครในโควตานักกีฬาเย าวชน
    ทักษะกีฬาของเธอคือมวยปล้ำ ซึ่งเอื้อต่อการทำงาน เมื่อบวกความทุ่มเท และบ้าบิ่นด้วยแล้ว เธอจึงเป็นตำรวจหญิงที่สร้างผลงานเยี่ยมยอด ได้รับการเชิดชูเกียรติคุณจากกรมตำรวจ
    แต่แล้วเมื่อเธอแต่งงาน มีลูก เธอก็ถูกย้ายไปเป็นตำรวจนั่งโต๊ะ ทำงานธุรการประจำสำนักบริการ มีหน้าที่รับเรื่องร้องเรียนต่างๆจากประชาชน เป็นงานจำเจ ไม่มีอนาคต รายได้ต่ำ
    แต่พออยู่มาเป็นปีก็พอจะปรับตัวได้บ้าง งานบริการต้องจิ๊จ๊ะอ่อนหวานเอาอกเอาใจคนอื่นเป็นบ้า ง โดยเฉพาะอย่างยิ่งกับหัวหน้างาน(รับบทโดย ยอมฮเยรัน)
    แต่ยามเผลอตัว เธอก็ยังหลุดปล่อยพลัง ออกอาการปากไว ใจร้อน ด่าดุเด็ดเผ็ดมันได้อยู่เสมอ

    สามีของมียอง คือ โจจีชอล (รับบทโดย ยุนซังฮยอน) เป็นว่าที่อัยการ คือเตรียมตัวสอบจะเป็นอัยการ เป็นว่าที่มานานหลายปีละ ตั้งแต่สมัยเริ่มจีบมียอล
    จวบจนแต่งงานและมีลูกหลายขวบแล้ว ก็ยังอยู่สถานะเดิม เรียกได้ว่าเป็นมนุษย์ ‘เฟล’ เสมอต้นเสมอปลาย เลยรับหน้าที่พ่อบ้านดูแลลูกและบ้านให้ภรรยา
    แต่เขาก็เป็นคนจริงใจ รักเมียเสมอต้นเสมอปลายด้วยนะ รักเว่อร์แบบยอมทุ่มถวายชีวิต (อย่างประทับใจเลย) เขามัก’บังเอิญ’เข้ามาอยู่ในเหตุการณ์คับขันของมียอง
    หรือไม่ก็ตั้งใจมาช่วยยามตกอยู่ในอันตราย แต่ความ‘เฟล’ของเขาก็มักทำเรื่องวุ่นหรือพลาดอยู่บ่อ ยๆ

    โจจีฮเย (รับบทโดย อีซองคยอง) เป็นน้องสาวของจีชอล ที่มาอาศัยอยู่ด้วย เธอเป็นตำรวจใหม่แต่รักอาชีพนี้ด้วยใจเต็มร้อยไม่ต่า งจากพี่สะใภ้
    วันหนึ่งเธอทำงานพลาด ทำให้ชื่อเสียงตำรวจถูกวิจารณ์ป่นปี้ เธอจึงโดนย้ายมาแขวนพักไว้ที่สำนักบริการ เป็นการลงโทษ เธอได้ที่นั่งประจำการอยู่ข้างพี่สะใภ้ของเธอเอง
    และมีตำรวจหญิงอีกคนประกบอีกข้าง เป็นเพื่อนสนิทคุยถูกใจของมียอง ชื่อ ยังจางมี (รับบทโดย ซูยอง) ผู้ซึ่งแฮ็กได้สารพัดข้อมูลในพริบตาด้วยนิ้วเทพๆของเ ธอ

    วันหนึ่ง มีหญิงสาววัยรุ่นเข้ามาในสำนักงาน เหมือนจะต้องการความช่วยเหลือใดสักอย่าง ทิ้งโทรศัพท์มือถือไว้อย่างหวาดกลัวแล้วกลับออกไปให้ รถชน หวังฆ่าตัวตาย
    แต่เธอกลับไม่ตายและมีอาการโคม่าแทน จึงยังให้ปากคำไม่ได้ สามตำรวจสาวจึงเช็คเบาะแสจากโทรศัพท์และตัดสินใจช่วย ลูกผู้หญิงด้วยกัน สืบสาวเรื่องราวโดยทำเป็นภารกิจลับเฉพาะ ไม่ให้เจ้านายรู้ เพราะพวกเธอกำลังทำงานผิดหน้าที่
    ปฏิบัติการภาคสนามของมียองและจีฮเย โดยมีแบคอัพไอทีและข้อมูลจากจางมี ทำให้พวกเธอพบว่า คดีนี้ไม่ธรรมดา ไม่ใช่เพียงแค่การแอบถ่ายคลิปเผยแพร่ให้อับอาย
    แต่มีเบื้องหลังเป็นแก๊งค์อาชญากรในคราบหนุ่มๆที่ดูด ี ทำการผลิตและค้ายาตัวใหม่ที่เป็นอันตรายอย่างยิ่งต่อ สังคม ส่วนผสมของสารเสพติดและยาชาที่ออกฤทธิ์ฉับไวให้เหยื่ อต้องแน่นิ่งจนโดนถ่ายคลิปอนาจารเก็บเอาไว้ได้
    โดยมี อูจุน (รับบทโดย วีฮาจุน) เป็นหัวหน้าแก๊งค์ ฟิลิป (รับบทโดย จูอูแจ) เป็นคนปรุงยา คิดค้นสูตรลับนี้ได้ด้วยมันสมองเก่งระดับมหา’ลัยสายไ อวีลีค และลูกน้องอีกสองคน ส่วนเครือข่ายค้ายาของพวกเขาก็แฝงตัวอยู่ในย่านต่างช าติชุมชนหลังสุเหร่าแห่งหนึ่ง




    General
    Unique ID : 290033723143223046729839476231253294330 (0xDA32769622567A9F223AE85684C07CFA)
    Complete name : E:Miss.and.Mrs.Cops.2019.KOREAN.1080p.BluRay.x265. mkv
    Format : Matroska
    Format version : Version 4
    File size : 5.11 GiB
    Duration : 1 h 47 min
    Overall bit rate : 6 836 kb/s
    Encoded date : UTC 2021-09-25 01:57:52
    Writing application : mkvmerge v61.0.0 ('So') 64-bit
    Writing library : libebml v1.4.2 + libmatroska v1.6.4
    Cover : Yes
    Attachments : cover

    Video
    ID : 1
    Format : HEVC
    Format/Info : High Efficiency Video Coding
    Format profile : Main [email protected]@Main
    Codec ID : V_MPEGH/ISO/HEVC
    Duration : 1 h 47 min
    Bit rate : 2 001 kb/s
    Width : 1 920 pixels
    Height : 804 pixels
    Display aspect ratio : 2.40:1
    Frame rate mode : Constant
    Frame rate : 24.000 FPS
    Color space : YUV
    Chroma subsampling : 4:2:0
    Bit depth : 10 bits
    Bits/(Pixel*Frame) : 0.054
    Stream size : 1.50 GiB (29%)
    Writing library : x265 3.3+4-siambit.me-30eb4de83092:[Linux][GCC 8.3.1][64 bit] 10bit
    Encoding settings : cpuid=1111039 / frame-threads=4 / wpp / no-pmode / no-pme / no-psnr / no-ssim / log-level=2 / input-csp=1 / input-res=1920x804 / interlace=0 / total-frames=0 / level-idc=0 / high-tier=1 / uhd-bd=0 / ref=4 / no-allow-non-conformance / no-repeat-headers / annexb / no-aud / no-hrd / info / hash=0 / no-temporal-layers / open-gop / min-keyint=24 / keyint=250 / gop-lookahead=0 / bframes=4 / b-adapt=2 / b-pyramid / bframe-bias=0 / rc-lookahead=25 / lookahead-slices=4 / scenecut=40 / hist-scenecut=0 / radl=0 / no-splice / no-intra-refresh / ctu=64 / min-cu-size=8 / rect / no-amp / max-tu-size=32 / tu-inter-depth=1 / tu-intra-depth=1 / limit-tu=0 / rdoq-level=2 / dynamic-rd=0.00 / no-ssim-rd / signh-i-d-e / no-tskip / nr-intra=0 / nr-inter=0 / no-constrained-intra / strong-intra-smoothing / max-merge=3 / limit-refs=3 / limit-modes / me=3 / subme=3 / merange=57 / temporal-mvp / no-frame-dup / no-hme / weightp / no-weightb / no-analyze-src-pics / deblock=0:0 / no-sao / no-sao-non-deblock / rd=4 / selective-sao=0 / no-early-skip / rskip / no-fast-intra / no-tskip-fast / no-cu-lossless / no-b-intra / no-splitrd-skip / rdpenalty=0 / psy-rd=2.00 / psy-rdoq=1.00 / no-rd-refine / no-lossless / cbqpoffs=0 / crqpoffs=0 / rc=abr / bitrate=2000 / qcomp=0.60 / qpstep=4 / stats-write=0 / stats-read=2 / cplxblur=20.0 / qblur=0.5 / ipratio=1.40 / pbratio=1.30 / aq-mode=3 / aq-strength=1.00 / cutree / zone-count=0 / no-strict-cbr / qg-size=32 / no-rc-grain / qpmax=69 / qpmin=0 / no-const-vbv / sar=0 / overscan=0 / videoformat=5 / range=0 / colorprim=2 / transfer=2 / colormatrix=2 / chromaloc=0 / display-window=0 / cll=0,0 / min-luma=0 / max-luma=1023 / log2-max-poc-lsb=8 / vui-timing-info / vui-hrd-info / slices=1 / no-opt-qp-pps / no-opt-ref-list-length-pps / no-multi-pass-opt-rps / scenecut-bias=0.05 / hist-threshold=0.01 / no-opt-cu-delta-qp / no-aq-motion / no-hdr10 / no-hdr10-opt / no-dhdr10-opt / no-idr-recovery-sei / analysis-reuse-level=0 / analysis-save-reuse-level=0 / analysis-load-reuse-level=0 / scale-factor=0 / refine-intra=0 / refine-inter=0 / refine-mv=1 / refine-ctu-distortion=0 / no-limit-sao / ctu-info=0 / no-lowpass-dct / refine-analysis-type=0 / copy-pic=1 / max-ausize-factor=1.0 / no-dynamic-refine / no-single-sei / no-hevc-aq / no-svt / no-field / qp-adaptation-range=1.00 / no-scenecut-aware-qpconformance-window-offsets / right=0 / bottom=0
    Language : Korean
    Default : Yes
    Forced : No

    Audio #1
    ID : 2
    Format : PCM
    Format settings : Little / Signed
    Codec ID : A_PCM/INT/LIT
    Duration : 1 h 47 min
    Bit rate mode : Constant
    Bit rate : 4 608 kb/s
    Channel(s) : 6 channels
    Sampling rate : 48.0 kHz
    Frame rate : 25.000 FPS (1920 SPF)
    Bit depth : 16 bits
    Stream size : 3.45 GiB (67%)
    Title : Thai PCM 5.1
    Default : Yes
    Forced : No

    Audio #2
    ID : 3
    Format : AAC LC
    Format/Info : Advanced Audio Codec Low Complexity
    Codec ID : A_AAC-2
    Duration : 1 h 47 min
    Bit rate : 224 kb/s
    Channel(s) : 6 channels
    Channel layout : C L R Ls Rs LFE
    Sampling rate : 48.0 kHz
    Frame rate : 46.875 FPS (1024 SPF)
    Compression mode : Lossy
    Delay relative to video : 41 ms
    Stream size : 172 MiB (3%)
    Title : Korean 5.1
    Language : Korean
    Default : No
    Forced : No

    Text
    ID : 4
    Format : UTF-8
    Codec ID : S_TEXT/UTF8
    Codec ID/Info : UTF-8 Plain Text
    Duration : 1 h 41 min
    Bit rate : 52 b/s
    Count of elements : 1393
    Stream size : 39.1 KiB (0%)
    Language : English
    Default : Yes
    Forced : No

    Download:filecondo
    http://www.filecondo.com/dl.php?f=533d3e1Mu5U5
    Download:cornfile
    https://www.cornfile.com/j2figmf9u3w9

  2. The Following 3 Users Say Thank You to Duckload.us For This Useful Post:

    Jodz14 (09-29-2021), noi54 (09-26-2021), sawara (10-07-2021)

  3. #2
    Senior Member
    สมัครเมื่อ
    Jul 2013
    โพสต์
    2,789
    Thanks
    0
    Thanked 0 Times in 0 Posts
    ขอบคุณครับ

  4. #3
    Senior Member
    สมัครเมื่อ
    Dec 2013
    โพสต์
    520
    Thanks
    457
    Thanked 0 Times in 0 Posts
    ขอบคุณครับบ

+ ตอบกลับกระทู้

ข้อมูลกระทู้

Users Browsing this Thread

ในขณะนี้มี 1 ท่านดูกระทู้อยู่. (0 สมาชิกและ 1 ผู้เยี่ยมชม)

     

กฎการโพสต์ข้อความ

  • ท่าน ไม่สามารถ ตั้งกระทู้ใหม่ได้
  • ท่าน ไม่สามารถ ตอบกระทู้ได้
  • ท่าน ไม่สามารถ แนบไฟล์ได้
  • ท่าน ไม่สามารถ แก้ไขข้อความโพสต์ได้
  • BB code สถานะ เปิด
  • Smilies สถานะ เปิด
  • [IMG] สถานะ เปิด
  • HTML สถานะ ปิด