+ ตอบกลับกระทู้
สรุปผลการค้นหา 1 ถึง 4 จากทั้งหมด 4
  1. #1
    Administrators รูปส่วนตัว Duckload.us
    สมัครเมื่อ
    Dec 2010
    โพสต์
    132,355
    Thanks
    7
    Thanked 135,961 Times in 60,119 Posts

    Thumbs up [ฝรั่ง]-[NETFLIX] Midnight Mass (2021) มิดไนท์ แมส Mini Series-[WEB-DL.H.264.1080p]. [From HD-TV]-[พากย์ไทย บรรยายไทย]




    สำหรับ Midnight Mass จะเล่าเรื่องราวของชุมชนเล็กๆ ในเกาะ Crocket Island โดยเล่าเรื่องราวผ่านชายคนหนึ่งที่เคยเป็นผู้อยู่อาศ ัยในชุมชนนี้มาก่อนทที่ได้กลับมาเยือนถิ่นกำเนิดของเ ขาอีกครั้ง และก็ได้พบว่าที่ชุมชนของเขามันมีการมาของนักบวกปริศ นาที่ดูเหมือนจะเป็นต้นต่อที่ทำให้เรื่องราวอันไม่สา มารถอธิบายได้เกิดขึ้น





    Format : Matroska
    Format version : Version 4 / Version 2
    File size : 3.08 GiB
    Duration : 59 min 55 s
    Overall bit rate mode : Variable
    Overall bit rate : 7 348 kb/s
    Movie name : Midnight Mass (TV Mini Series 2021) @Argon
    Encoded date : UTC 2021-09-25 00:33:37
    Writing application : mkvmerge v60.0.0 ('Are We Copies?') 64-bit
    Writing library : libebml v1.4.2 + libmatroska v1.6.4

    Video
    ID : 1
    Format : AVC
    Format/Info : Advanced Video Codec
    Format profile : [email protected]
    Format settings, CABAC : Yes
    Format settings, RefFrames : 4 frames
    Codec ID : V_MPEG4/ISO/AVC
    Duration : 59 min 53 s
    Bit rate mode : Variable
    Bit rate : 6 027 kb/s
    Maximum bit rate : 20.0 Mb/s
    Width : 1 920 pixels
    Height : 1 080 pixels
    Display aspect ratio : 16:9
    Frame rate mode : Constant
    Frame rate : 24.000 FPS
    Color space : YUV
    Chroma subsampling : 4:2:0
    Bit depth : 8 bits
    Scan type : Progressive
    Bits/(Pixel*Frame) : 0.121
    Stream size : 2.52 GiB (82%)
    Writing library : x264 core 148 r2724 dbe0335
    Encoding settings : cabac=1 / ref=4 / deblock=1:0:0 / analyse=0x3:0x111 / me=umh / subme=10 / psy=1 / psy_rd=1.00:0.00 / mixed_ref=1 / me_range=120 / chroma_me=1 / trellis=2 / 8x8dct=1 / cqm=0 / deadzone=21,11 / fast_pskip=1 / chroma_qp_offset=-2 / threads=8 / lookahead_threads=2 / sliced_threads=0 / nr=0 / decimate=1 / interlaced=0 / bluray_compat=0 / stitchable=1 / constrained_intra=0 / bframes=16 / b_pyramid=2 / b_adapt=2 / b_bias=0 / direct=3 / weightb=1 / open_gop=0 / weightp=2 / keyint=240 / keyint_min=121 / scenecut=0 / intra_refresh=0 / rc_lookahead=240 / rc=crf / mbtree=1 / crf=16.0 / qcomp=0.50 / qpmin=6 / qpmax=51 / qpstep=4 / vbv_maxrate=20000 / vbv_bufsize=25000 / crf_max=0.0 / nal_hrd=vbr / filler=0 / ip_ratio=1.40 / aq=1:0.80
    Default : Yes
    Forced : No

    Audio #1
    ID : 2
    Format : E-AC-3
    Format/Info : Enhanced Audio Coding 3
    Format settings, Endianness : Big
    Codec ID : A_EAC3
    Duration : 59 min 55 s
    Bit rate mode : Constant
    Bit rate : 640 kb/s
    Channel(s) : 6 channels
    Channel positions : Front: L C R, Side: L R, LFE
    Sampling rate : 48.0 kHz
    Frame rate : 187.500 FPS (256 SPF)
    Compression mode : Lossy
    Stream size : 274 MiB (9%)
    Title : Thai-DDP 5.1
    Language : Thai
    Service kind : Complete Main
    Default : Yes
    Forced : Yes

    Audio #2
    ID : 3
    Format : E-AC-3
    Format/Info : Enhanced Audio Coding 3
    Format profile : E-AC-3+Atmos / E-AC-3
    Format settings, Endianness : Big
    Codec ID : A_EAC3
    Duration : 59 min 54 s
    Bit rate mode : Constant
    Bit rate : 640 kb/s
    Channel(s) : 15 objects / 6 channels
    Channel positions : 15 objects / Front: L C R, Side: L R, LFE
    Sampling rate : 48.0 kHz
    Frame rate : 187.500 FPS (256 SPF)
    Compression mode : Lossy
    Stream size : 274 MiB (9%)
    Title : English-DDP 5.1
    Language : English
    Service kind : Complete Main
    Default : Yes
    Forced : No

    Text #1
    ID : 4
    Format : PGS
    Muxing mode : zlib
    Codec ID : S_HDMV/PGS
    Codec ID/Info : Picture based subtitle format used on BDs/HD-DVDs
    Duration : 57 min 43 s
    Bit rate : 1 552 b/s
    Count of elements : 38
    Stream size : 656 KiB (0%)
    Title : Thai-FORCED PGS From Original NETFLIX
    Language : Thai
    Default : Yes
    Forced : Yes

    Text #2
    ID : 5
    Format : PGS
    Muxing mode : zlib
    Codec ID : S_HDMV/PGS
    Codec ID/Info : Picture based subtitle format used on BDs/HD-DVDs
    Duration : 57 min 43 s
    Bit rate : 53.9 kb/s
    Count of elements : 1300
    Stream size : 22.2 MiB (1%)
    Title : Thai-PGS From Original NETFLIX
    Language : Thai
    Default : Yes
    Forced : No

    Text #3
    ID : 6
    Format : VobSub
    Muxing mode : zlib
    Codec ID : S_VOBSUB
    Codec ID/Info : Picture based subtitle format used on DVDs
    Duration : 57 min 43 s
    Bit rate : 10.6 kb/s
    Count of elements : 650
    Stream size : 4.38 MiB (0%)
    Title : Thai-VOBSUB From Original NETFLIX
    Language : Thai
    Default : Yes
    Forced : No

    Text #4
    ID : 7
    Format : UTF-8
    Codec ID : S_TEXT/UTF8
    Codec ID/Info : UTF-8 Plain Text
    Duration : 55 min 42 s
    Bit rate : 69 b/s
    Count of elements : 785
    Stream size : 28.3 KiB (0%)
    Title : English-SRT
    Language : English
    Default : Yes
    Forced : No





    Download:filecondo
    1 http://www.filecondo.com/dl.php?f=1af5cd1MuqSS
    2 http://www.filecondo.com/dl.php?f=lb0d351Mur2L
    3 http://www.filecondo.com/dl.php?f=m109dd1Mur7v
    4 http://www.filecondo.com/dl.php?f=aa95281MuraJ
    5 http://www.filecondo.com/dl.php?f=Yc580a1Mure5
    6 http://www.filecondo.com/dl.php?f=pb94891Murha
    7 http://www.filecondo.com/dl.php?f=x23f611MurhJ

    Download:cornfile
    Midnight.Mass.2021.S0E01.1080p.NF.APP-DL.DDP5.1.h264.mkv - 3.1 GB
    Midnight.Mass.2021.S0E02.1080p.NF.APP-DL.DDP5.1.h264.mkv - 3.2 GB
    Midnight.Mass.2021.S0E03.1080p.NF.APP-DL.DDP5.1.h264.mkv - 2.7 GB
    Midnight.Mass.2021.S0E04.1080p.NF.APP-DL.DDP5.1.h264.mkv - 2.8 GB
    Midnight.Mass.2021.S0E05.1080p.NF.APP-DL.DDP5.1.h264.mkv - 2.3 GB
    Midnight.Mass.2021.S0E06.1080p.NF.APP-DL.DDP5.1.h264.mkv - 3.0 GB
    Midnight.Mass.2021.S0E07.1080p.NF.APP-DL.DDP5.1.h264.mkv - 2.0 GB

  2. The Following 2 Users Say Thank You to Duckload.us For This Useful Post:

    jackjangri (10-12-2021), whiteherbie (10-02-2021)

  3. #2
    Senior Member
    สมัครเมื่อ
    Jul 2013
    โพสต์
    2,789
    Thanks
    0
    Thanked 0 Times in 0 Posts
    ขอบคุรครับ

  4. #3
    Senior Member
    สมัครเมื่อ
    Dec 2011
    โพสต์
    2,610
    Thanks
    166
    Thanked 0 Times in 0 Posts
    Thank you ka

  5. #4
    Senior Member
    สมัครเมื่อ
    Jun 2011
    โพสต์
    357
    Thanks
    509
    Thanked 40 Times in 29 Posts
    Thank you ka

+ ตอบกลับกระทู้

ข้อมูลกระทู้

Users Browsing this Thread

ในขณะนี้มี 1 ท่านดูกระทู้อยู่. (0 สมาชิกและ 1 ผู้เยี่ยมชม)

     

กฎการโพสต์ข้อความ

  • ท่าน ไม่สามารถ ตั้งกระทู้ใหม่ได้
  • ท่าน ไม่สามารถ ตอบกระทู้ได้
  • ท่าน ไม่สามารถ แนบไฟล์ได้
  • ท่าน ไม่สามารถ แก้ไขข้อความโพสต์ได้
  • BB code สถานะ เปิด
  • Smilies สถานะ เปิด
  • [IMG] สถานะ เปิด
  • HTML สถานะ ปิด