+ ตอบกลับกระทู้
สรุปผลการค้นหา 1 ถึง 3 จากทั้งหมด 3
  1. #1
    Administrators รูปส่วนตัว Duckload.us
    สมัครเมื่อ
    Dec 2010
    โพสต์
    132,379
    Thanks
    7
    Thanked 135,975 Times in 60,128 Posts

    Thumbs up [MINI-HQ] Black Widow IMAX Edition (2021) แบล็ค วิโดว์ [พากย์:Thai 5.1/English 5.1][SUB:Thai/English][1080p]



    เรื่องย่อ : Black Widow IMAX Edition (2021) แบล็ค วิโดว์
    หนังฉายเดี่ยวของฮีโร่ตัวแม่ เปิดจักรวาลมาร์เวลเฟส 4 เรื่องแรก จิ๊กซอว์ที่จะเติมเต็มจักรวาลให้สมบูรณ์ กับภารกิจล้างอดีตครั้งสำคัญของ นาตาชา โรมานอฟ ผลงานกำกับการแสดงโดย เคท ชอร์ทแลนด์ เสริมทัพนักแสดงโดย เรเชล ไวซ์, โอที แฟกบีเนล และ ฟลอเรนซ์ พิวจ์!!

    General
    Unique ID : 212738541418591887940826052591822269250 (0xA00BF3E5BDEC7CA9805E1EDC63EB6B42)
    Format : Matroska
    Format version : Version 4
    File size : 4.35 GiB
    Duration : 2 h 13 min
    Overall bit rate : 4 660 kb/s
    Movie name : Black.Widow.2021.IMAX.1080p.DD5.1.x264.TH
    Encoded date : UTC 2010-02-22 21:41:31
    Writing application : mkvmerge v5.9.0 ('On The Loose') built on Dec 9 2012 15:37:01
    Writing library : libebml v1.3.0 + libmatroska v1.4.0

    Video
    ID : 1
    Format : AVC
    Format/Info : Advanced Video Codec
    Format profile : [email protected]
    Format settings : CABAC / 4 Ref Frames
    Format settings, CABAC : Yes
    Format settings, ReFrames : 4 frames
    Muxing mode : Header stripping
    Codec ID : V_MPEG4/ISO/AVC
    Duration : 2 h 13 min
    Bit rate : 3 593 kb/s
    Width : 1 920 pixels
    Height : 1 012 pixels
    Display aspect ratio : 1.897
    Frame rate mode : Constant
    Frame rate : 23.810 FPS
    Color space : YUV
    Chroma subsampling : 4:2:0
    Bit depth : 8 bits
    Scan type : Progressive
    Bits/(Pixel*Frame) : 0.078
    Stream size : 3.31 GiB (76%)
    Title : Black.Widow.2021.IMAX.1080p.DD5.1.x264.TH
    Writing library : x264 core 155
    Language : English
    Default : Yes
    Forced : No

    Audio #1
    ID : 2
    Format : AC-3
    Format/Info : Audio Coding 3
    Commercial name : Dolby Digital
    Muxing mode : Header stripping
    Codec ID : A_AC3
    Duration : 2 h 13 min
    Bit rate mode : Constant
    Bit rate : 384 kb/s
    Channel(s) : 6 channels
    Channel layout : L R C LFE Ls Rs
    Sampling rate : 48.0 kHz
    Frame rate : 31.250 FPS (1536 SPF)
    Bit depth : 16 bits
    Compression mode : Lossy
    Stream size : 367 MiB (8%)
    Title : Thai 5.1
    Language : Thai
    Service kind : Complete Main
    Default : Yes
    Forced : Yes

    Audio #2
    ID : 3
    Format : E-AC-3
    Format/Info : Enhanced AC-3
    Commercial name : Dolby Digital Plus
    Muxing mode : Header stripping
    Codec ID : A_EAC3
    Duration : 2 h 13 min
    Bit rate mode : Constant
    Bit rate : 640 kb/s
    Channel(s) : 6 channels
    Channel layout : L R C LFE Ls Rs
    Sampling rate : 48.0 kHz
    Frame rate : 31.250 FPS (1536 SPF)
    Compression mode : Lossy
    Stream size : 612 MiB (14%)
    Title : English 5.1
    Language : English
    Service kind : Complete Main
    Default : No
    Forced : No
    FromStats_BitRate : 640000
    FromStats_Duration : 02:13:46.784000000
    FromStats_FrameCount : 250837
    FromStats_StreamSize : 642142720

    Text #1
    ID : 4
    Format : UTF-8
    Codec ID : S_TEXT/UTF8
    Codec ID/Info : UTF-8 Plain Text
    Title : Thai
    Language : Thai
    Default : No
    Forced : No
    FromStats_BitRate : 78
    FromStats_Duration : 02:12:36.123000000
    FromStats_FrameCount : 1310
    FromStats_StreamSize : 77941

    Text #2
    ID : 5
    Format : PGS
    Muxing mode : zlib
    Codec ID : S_HDMV/PGS
    Codec ID/Info : Picture based subtitle format used on BDs/HD-DVDs
    Title : Thai PGS
    Language : Thai
    Default : Yes
    Forced : Yes
    FromStats_BitRate : 19178
    FromStats_Duration : 02:12:36.074000000
    FromStats_FrameCount : 2620
    FromStats_StreamSize : 19073289

    Text #3
    ID : 6
    Format : PGS
    Muxing mode : zlib
    Codec ID : S_HDMV/PGS
    Codec ID/Info : Picture based subtitle format used on BDs/HD-DVDs
    Title : English
    Language : English
    Default : No
    Forced : No
    FromStats_BitRate : 25548
    FromStats_Duration : 02:12:22.977000000
    FromStats_FrameCount : 2584
    FromStats_StreamSize : 25366838




    Download:filecondo
    http://www.filecondo.com/dl.php?f=3fd8801MAhyf
    Download:cornfile
    https://www.cornfile.com/jr5ddcsnfyuh

  2. The Following 2 Users Say Thank You to Duckload.us For This Useful Post:

    agg001 (10-12-2021), sawara (10-13-2021)

  3. #2
    Senior Member
    สมัครเมื่อ
    Jan 2011
    โพสต์
    790
    Thanks
    1,082
    Thanked 0 Times in 0 Posts
    ขอบคุณครับ

  4. #3
    Senior Member
    สมัครเมื่อ
    Dec 2013
    โพสต์
    520
    Thanks
    457
    Thanked 0 Times in 0 Posts
    ขอบคุณครับบ

+ ตอบกลับกระทู้

ข้อมูลกระทู้

Users Browsing this Thread

ในขณะนี้มี 1 ท่านดูกระทู้อยู่. (0 สมาชิกและ 1 ผู้เยี่ยมชม)

     

กฎการโพสต์ข้อความ

  • ท่าน ไม่สามารถ ตั้งกระทู้ใหม่ได้
  • ท่าน ไม่สามารถ ตอบกระทู้ได้
  • ท่าน ไม่สามารถ แนบไฟล์ได้
  • ท่าน ไม่สามารถ แก้ไขข้อความโพสต์ได้
  • BB code สถานะ เปิด
  • Smilies สถานะ เปิด
  • [IMG] สถานะ เปิด
  • HTML สถานะ ปิด