+ ตอบกลับกระทู้
สรุปผลการค้นหา 1 ถึง 3 จากทั้งหมด 3
  1. #1
    Administrators รูปส่วนตัว Duckload.us
    สมัครเมื่อ
    Dec 2010
    โพสต์
    133,426
    Thanks
    7
    Thanked 137,016 Times in 60,577 Posts

    Thumbs up [ญี่ปุ่น]-[NETFLIX] Violet Evergarden the Movie (2020) ไวโอเล็ต เอเวอร์การ์เดน เดอะ มูฟวี่-WEB-DL.EAC-3.1080p. [rip from Master]-[พากย์ญี่ปุ่น 5.1 อังกฤษ 5.1 บรรยายไทย-อังกฤษ]




    หลังสงครามผ่านพ้น โลกก็ดำเนินต่อไปด้วยเทคโนโลยีอันก้าวหน้าที่นำพาควา มเปลี่ยนแปลงสารพัดมาสู่ชีวิตของไวโอเล็ต แต่เธอยังหวังว่าจะได้พบกับผู้การที่พลัดพรากจากกันอ ีกครั้ง


    Format : Matroska
    Format version : Version 4
    File size : 5.03 GiB
    Duration : 2 h 20 min
    Overall bit rate : 5 136 kb/s
    Encoded date : UTC 2021-10-13 10:44:18
    Writing application : mkvmerge v62.0.0 ('Apollo') 64-bit
    Writing library : libebml v1.4.2 + libmatroska v1.6.4

    Video
    ID : 1
    Format : AVC
    Format/Info : Advanced Video Codec
    Format profile : [email protected]
    Format settings : CABAC / 5 Ref Frames
    Format settings, CABAC : Yes
    Format settings, Reference : 5 frames
    Codec ID : V_MPEG4/ISO/AVC
    Duration : 2 h 20 min
    Bit rate : 3 902 kb/s
    Width : 1 920 pixels
    Height : 856 pixels
    Display aspect ratio : 2.25:1
    Frame rate mode : Constant
    Frame rate : 24.000 FPS
    Color space : YUV
    Chroma subsampling : 4:2:0
    Bit depth : 8 bits
    Scan type : Progressive
    Bits/(Pixel*Frame) : 0.099
    Stream size : 3.73 GiB (74%)
    Writing library : x264 core 161 r3048+25 be33c5d [Mod by Patman]
    Language : Japanese
    Default : Yes
    Forced : No

    Audio #1
    ID : 2
    Format : E-AC-3
    Format/Info : Enhanced AC-3
    Commercial name : Dolby Digital Plus
    Codec ID : A_EAC3
    Duration : 2 h 20 min
    Bit rate mode : Constant
    Bit rate : 640 kb/s
    Channel(s) : 6 channels
    Channel layout : L R C LFE Ls Rs
    Sampling rate : 48.0 kHz
    Frame rate : 31.250 FPS (1536 SPF)
    Compression mode : Lossy
    Stream size : 642 MiB (12%)
    Title : E-AC3 Japanese
    Language : Japanese
    Service kind : Complete Main
    Default : Yes
    Forced : No

    Audio #2
    ID : 3
    Format : E-AC-3
    Format/Info : Enhanced AC-3
    Commercial name : Dolby Digital Plus
    Codec ID : A_EAC3
    Duration : 2 h 20 min
    Bit rate mode : Constant
    Bit rate : 640 kb/s
    Channel(s) : 6 channels
    Channel layout : L R C LFE Ls Rs
    Sampling rate : 48.0 kHz
    Frame rate : 31.250 FPS (1536 SPF)
    Compression mode : Lossy
    Stream size : 642 MiB (12%)
    Title : E-AC3 English
    Language : English
    Service kind : Complete Main
    Default : No
    Forced : No

    Text #1
    ID : 4
    Format : VobSub
    Muxing mode : zlib
    Codec ID : S_VOBSUB
    Codec ID/Info : Picture based subtitle format used on DVDs
    Duration : 2 h 17 min
    Bit rate : 8 946 b/s
    Count of elements : 1312
    Stream size : 8.81 MiB (0%)
    Title : Sub Thai 1080p
    Language : Thai
    Default : No
    Forced : No

    Text #2
    ID : 5
    Format : UTF-8
    Codec ID : S_TEXT/UTF8
    Codec ID/Info : UTF-8 Plain Text
    Duration : 2 h 17 min
    Bit rate : 92 b/s
    Count of elements : 1312
    Stream size : 93.8 KiB (0%)
    Title : Sub Thai SRT
    Language : Thai
    Default : No
    Forced : No

    Text #3
    ID : 6
    Format : PGS
    Muxing mode : zlib
    Codec ID : S_HDMV/PGS
    Codec ID/Info : Picture based subtitle format used on BDs/HD-DVDs
    Duration : 2 h 17 min
    Bit rate : 25.5 kb/s
    Count of elements : 2624
    Stream size : 25.1 MiB (0%)
    Title : Sub Thai PGS
    Language : Thai
    Default : No
    Forced : No

    Text #4
    ID : 7
    Format : PGS
    Muxing mode : zlib
    Codec ID : S_HDMV/PGS
    Codec ID/Info : Picture based subtitle format used on BDs/HD-DVDs
    Duration : 2 h 17 min
    Bit rate : 44.4 kb/s
    Count of elements : 2624
    Stream size : 43.7 MiB (1%)
    Title : Sub Thai PGS NETFLIX
    Language : Thai
    Default : Yes
    Forced : No

    Text #5
    ID : 8
    Format : UTF-8
    Codec ID : S_TEXT/UTF8
    Codec ID/Info : UTF-8 Plain Text
    Duration : 2 h 19 min
    Bit rate : 36 b/s
    Count of elements : 1414
    Stream size : 37.1 KiB (0%)
    Title : Sub English SRT
    Language : English
    Default : No
    Forced : No






    Download:filecondo
    http://www.filecondo.com/dl.php?f=Ud2a131MBrs0
    Download:cornfile
    https://www.cornfile.com/2pylyqlpexu9

  2. The Following User Says Thank You to Duckload.us For This Useful Post:

    jackjangri (10-16-2021)

  3. #2
    Member
    สมัครเมื่อ
    Jun 2020
    โพสต์
    38
    Thanks
    1
    Thanked 0 Times in 0 Posts
    ขอบคุณมากนะคะ t____t

  4. #3
    Senior Member
    สมัครเมื่อ
    Jun 2011
    โพสต์
    379
    Thanks
    531
    Thanked 40 Times in 29 Posts
    ขอบคุณมากนะคะ t____t

+ ตอบกลับกระทู้

ข้อมูลกระทู้

Users Browsing this Thread

ในขณะนี้มี 1 ท่านดูกระทู้อยู่. (0 สมาชิกและ 1 ผู้เยี่ยมชม)

     

กฎการโพสต์ข้อความ

  • ท่าน ไม่สามารถ ตั้งกระทู้ใหม่ได้
  • ท่าน ไม่สามารถ ตอบกระทู้ได้
  • ท่าน ไม่สามารถ แนบไฟล์ได้
  • ท่าน ไม่สามารถ แก้ไขข้อความโพสต์ได้
  • BB code สถานะ เปิด
  • Smilies สถานะ เปิด
  • [IMG] สถานะ เปิด
  • HTML สถานะ ปิด