+ ตอบกลับกระทู้
สรุปผลการค้นหา 1 ถึง 3 จากทั้งหมด 3
  1. #1
    Administrators รูปส่วนตัว Duckload.us
    สมัครเมื่อ
    Dec 2010
    โพสต์
    133,270
    Thanks
    7
    Thanked 136,898 Times in 60,533 Posts

    Thumbs up [ฝรั่ง]-[HBO Max] Dune (2021) ดูน-WEB-DL.EAC-3.1080p. [Modified]-[พากย์อังกฤษ 5.1 บรรยายไทย (แปล)-อังกฤษ]




    ผู้เข้าชิงรางวัลออสการ์ เดนิส วิลล์เนิฟ (ภาพยนตร์ “Arrival”, ภาพยนตร์ “Blade Runner 2049”) รับหน้าที่กำกับผลงานจาก วอร์เนอร์ บราเดอร์ส พิกเจอร์ส และ เลเจนดารี่ พิกเจอร์ส “Dune – ดูน” ภาพยนตร์ดัดแปลงฟอร์มยักษ์จากนวนิยายขายดีของ แฟรงค์ เฮอร์เบิร์ต

    เตรียมเปิดตำนานการเดินทางสุดเข้มข้นของเหล่าผู้กล้า ‘Dune – ดูุน“ เล่าเรื่องราวของ พอล อาร์เทรดีส อัจฉริยะหนุ่มผู้มีพรสวรรค์ที่เกิดมาพร้อมโชคชะตาอัน ยิ่งใหญ่เกินกว่าจะเข้าใจ เขาต้องเดินทางไปยังดาวเคราะห์ที่อันตรายที่สุดในจัก รวาลเพื่อความอยู่รอดและอนาคตของครอบครัวรวมถึงผู้คน ของเขา หลังถูกรุกรานโดยกองกำลังวายร้ายหน้าเลือดที่หวังแย่ งชิงทรัพยากรที่ล้ำค่ามากที่สุดเท่าที่เคยมีมา ซึ่งสามารถใช้ดึงศักยภาพที่ซ่อนเร้นของมนุษยชาติออกม าได้ และมีเพียงผู้ที่สามารถเอาชนะความกลัวได้เท่านั้นที่ จะอยู่รอดในศึกครั้งนี้


    Format : Matroska
    Format version : Version 4
    File size : 4.44 GiB
    Duration : 2 h 28 min
    Overall bit rate : 4 271 kb/s
    Encoded date : UTC 2021-10-18 14:15:54
    Writing application : mkvmerge v55.0.0 ('Waiting For Space') 64-bit
    Writing library : libebml v1.4.2 + libmatroska v1.6.4

    Video
    ID : 1
    Format : AVC
    Format/Info : Advanced Video Codec
    Format profile : [email protected]
    Format settings : CABAC / 3 Ref Frames
    Format settings, CABAC : Yes
    Format settings, Reference : 3 frames
    Codec ID : V_MPEG4/ISO/AVC
    Duration : 2 h 28 min
    Bit rate : 3 871 kb/s
    Width : 1 920 pixels
    Height : 776 pixels
    Display aspect ratio : 2.474
    Frame rate mode : Constant
    Frame rate : 25.000 FPS
    Color space : YUV
    Chroma subsampling : 4:2:0
    Bit depth : 8 bits
    Scan type : Progressive
    Bits/(Pixel*Frame) : 0.104
    Stream size : 4.03 GiB (91%)
    Language : English
    Default : Yes
    Forced : No
    Color range : Limited
    Color primaries : BT.709
    Transfer characteristics : BT.709
    Matrix coefficients : BT.709

    Audio
    ID : 2
    Format : E-AC-3
    Format/Info : Enhanced AC-3
    Commercial name : Dolby Digital Plus
    Codec ID : A_EAC3
    Duration : 2 h 28 min
    Bit rate mode : Constant
    Bit rate : 384 kb/s
    Channel(s) : 6 channels
    Channel layout : L R C LFE Ls Rs
    Sampling rate : 48.0 kHz
    Frame rate : 31.250 FPS (1536 SPF)
    Compression mode : Lossy
    Stream size : 409 MiB (9%)
    Title : E-AC3 English
    Language : English
    Service kind : Complete Main
    Default : Yes
    Forced : No

    Text #1
    ID : 3
    Format : VobSub
    Muxing mode : zlib
    Codec ID : S_VOBSUB
    Codec ID/Info : Picture based subtitle format used on DVDs
    Duration : 2 h 21 min
    Bit rate : 7 963 b/s
    Count of elements : 1001
    Stream size : 8.06 MiB (0%)
    Title : Sub Thai 1080p
    Language : Thai
    Default : No
    Forced : No

    Text #2
    ID : 4
    Format : UTF-8
    Codec ID : S_TEXT/UTF8
    Codec ID/Info : UTF-8 Plain Text
    Duration : 2 h 21 min
    Bit rate : 82 b/s
    Count of elements : 1001
    Stream size : 85.8 KiB (0%)
    Title : Sub Thai SRT
    Language : Thai
    Default : No
    Forced : No

    Text #3
    ID : 5
    Format : PGS
    Muxing mode : zlib
    Codec ID : S_HDMV/PGS
    Codec ID/Info : Picture based subtitle format used on BDs/HD-DVDs
    Duration : 2 h 21 min
    Bit rate : 22.2 kb/s
    Count of elements : 2002
    Stream size : 22.4 MiB (0%)
    Title : Sub Thai PGS
    Language : Thai
    Default : Yes
    Forced : No

    Text #4
    ID : 6
    Format : UTF-8
    Codec ID : S_TEXT/UTF8
    Codec ID/Info : UTF-8 Plain Text
    Duration : 2 h 20 min
    Bit rate : 34 b/s
    Count of elements : 998
    Stream size : 35.8 KiB (0%)
    Title : Sub English SRT
    Language : English
    Default : No
    Forced : No





    บรรยายไทย - อนันต์ โพธิสูง
    Download:filecondo
    http://www.filecondo.com/dl.php?f=1d44be1MCNFP
    Download:cornfile
    https://www.cornfile.com/2onh4puxdsmr

  2. The Following 7 Users Say Thank You to Duckload.us For This Useful Post:

    kappa (10-21-2021), mettset (10-27-2021), NaiWan (10-20-2021), noi54 (10-19-2021), sasithep (10-28-2021), Tellmon (10-22-2021), Wesker_TOT (10-26-2021)

  3. #2
    Junior Member
    สมัครเมื่อ
    Jul 2021
    โพสต์
    26
    Thanks
    0
    Thanked 0 Times in 0 Posts
    filecondo บอกว่าเว็บตอบสนองช้า เป็นไรหรอครับ

  4. #3
    Senior Member
    สมัครเมื่อ
    Dec 2013
    โพสต์
    3,356
    Thanks
    5,266
    Thanked 0 Times in 0 Posts
    ขอบคุณครับ...

+ ตอบกลับกระทู้

ข้อมูลกระทู้

Users Browsing this Thread

ในขณะนี้มี 1 ท่านดูกระทู้อยู่. (0 สมาชิกและ 1 ผู้เยี่ยมชม)

     

กฎการโพสต์ข้อความ

  • ท่าน ไม่สามารถ ตั้งกระทู้ใหม่ได้
  • ท่าน ไม่สามารถ ตอบกระทู้ได้
  • ท่าน ไม่สามารถ แนบไฟล์ได้
  • ท่าน ไม่สามารถ แก้ไขข้อความโพสต์ได้
  • BB code สถานะ เปิด
  • Smilies สถานะ เปิด
  • [IMG] สถานะ เปิด
  • HTML สถานะ ปิด