+ ตอบกลับกระทู้
สรุปผลการค้นหา 1 ถึง 3 จากทั้งหมด 3
  1. #1
    Administrators รูปส่วนตัว Duckload.us
    สมัครเมื่อ
    Dec 2010
    โพสต์
    133,190
    Thanks
    7
    Thanked 136,790 Times in 60,503 Posts

    Thumbs up [ฝรั่ง]-[NETFLIX] Night Teeth (2021) เขี้ยวราตรี-WEB-DL.EAC-3.Atmos.1080p. [Netflix (web-dl)]-[พากย์อังกฤษ Atmos 5.1 ไทย 5.1 บรรยายไทย (Master)-อังกฤษ]



    โชเฟอร์หนุ่มพาสาวปริศนาสองคนตระเวนไปตามปาร์ตี้ที่ต ่างๆ ในยามค่ำคืน แต่เมื่อผู้โดยสารได้เผยธาตุแท้ เขาจึงต้องสู้เพื่อเอาชีวิตรอดในค่ำคืนหฤโหด

    Format : Matroska
    Format version : Version 4
    File size : 4.17 GiB
    Duration : 1 h 48 min
    Overall bit rate : 5 491 kb/s
    Encoded date : UTC 2021-10-20 12:42:22
    Writing application : mkvmerge v55.0.0 ('Waiting For Space') 64-bit
    Writing library : libebml v1.4.2 + libmatroska v1.6.4

    Video
    ID : 1
    Format : AVC
    Format/Info : Advanced Video Codec
    Format profile : [email protected]
    Format settings : CABAC / 3 Ref Frames
    Format settings, CABAC : Yes
    Format settings, Reference : 3 frames
    Codec ID : V_MPEG4/ISO/AVC
    Duration : 1 h 48 min
    Bit rate : 4 026 kb/s
    Width : 1 920 pixels
    Height : 804 pixels
    Display aspect ratio : 2.40:1
    Frame rate mode : Constant
    Frame rate : 24.000 FPS
    Color space : YUV
    Chroma subsampling : 4:2:0
    Bit depth : 8 bits
    Scan type : Progressive
    Bits/(Pixel*Frame) : 0.109
    Stream size : 3.06 GiB (73%)
    Language : English
    Default : Yes
    Forced : No

    Audio #1
    ID : 2
    Format : E-AC-3 JOC
    Format/Info : Enhanced AC-3 with Joint Object Coding
    Commercial name : Dolby Digital Plus with Dolby Atmos
    Codec ID : A_EAC3
    Duration : 1 h 48 min
    Bit rate mode : Constant
    Bit rate : 768 kb/s
    Channel(s) : 6 channels
    Channel layout : L R C LFE Ls Rs
    Sampling rate : 48.0 kHz
    Frame rate : 31.250 FPS (1536 SPF)
    Compression mode : Lossy
    Stream size : 597 MiB (14%)
    Title : E-AC3 Atmos English
    Language : English
    Service kind : Complete Main
    Default : Yes
    Forced : No
    Complexity index : 16
    Number of dynamic objects : 15
    Bed channel count : 1 channel
    Bed channel configuration : LFE

    Audio #2
    ID : 3
    Format : E-AC-3
    Format/Info : Enhanced AC-3
    Commercial name : Dolby Digital Plus
    Codec ID : A_EAC3
    Duration : 1 h 48 min
    Bit rate mode : Constant
    Bit rate : 640 kb/s
    Channel(s) : 6 channels
    Channel layout : L R C LFE Ls Rs
    Sampling rate : 48.0 kHz
    Frame rate : 31.250 FPS (1536 SPF)
    Compression mode : Lossy
    Stream size : 498 MiB (12%)
    Title : E-AC3 Thai
    Language : Thai
    Service kind : Complete Main
    Default : No
    Forced : No

    Text #1
    ID : 4
    Format : VobSub
    Muxing mode : zlib
    Codec ID : S_VOBSUB
    Codec ID/Info : Picture based subtitle format used on DVDs
    Duration : 1 h 46 min
    Bit rate : 10.4 kb/s
    Count of elements : 1238
    Stream size : 7.95 MiB (0%)
    Title : Sub Thai 1080p
    Language : Thai
    Default : No
    Forced : No

    Text #2
    ID : 5
    Format : UTF-8
    Codec ID : S_TEXT/UTF8
    Codec ID/Info : UTF-8 Plain Text
    Duration : 1 h 46 min
    Bit rate : 108 b/s
    Count of elements : 1238
    Stream size : 85.0 KiB (0%)
    Title : Sub Thai SRT
    Language : Thai
    Default : No
    Forced : No

    Text #3
    ID : 6
    Format : PGS
    Muxing mode : zlib
    Codec ID : S_HDMV/PGS
    Codec ID/Info : Picture based subtitle format used on BDs/HD-DVDs
    Duration : 1 h 46 min
    Bit rate : 29.3 kb/s
    Count of elements : 2476
    Stream size : 22.4 MiB (1%)
    Title : Sub Thai PGS
    Language : Thai
    Default : No
    Forced : No

    Text #4
    ID : 7
    Format : PGS
    Muxing mode : zlib
    Codec ID : S_HDMV/PGS
    Codec ID/Info : Picture based subtitle format used on BDs/HD-DVDs
    Duration : 1 h 46 min
    Bit rate : 51.0 kb/s
    Count of elements : 2476
    Stream size : 39.0 MiB (1%)
    Title : Sub Thai PGS NETFLIX
    Language : Thai
    Default : Yes
    Forced : No

    Text #5
    ID : 8
    Format : UTF-8
    Codec ID : S_TEXT/UTF8
    Codec ID/Info : UTF-8 Plain Text
    Duration : 1 h 46 min
    Bit rate : 3 b/s
    Count of elements : 49
    Stream size : 2.82 KiB (0%)
    Title : Sub Thai SRT FORCE
    Language : Thai
    Default : No
    Forced : Yes

    Text #6
    ID : 9
    Format : UTF-8
    Codec ID : S_TEXT/UTF8
    Codec ID/Info : UTF-8 Plain Text
    Duration : 1 h 45 min
    Bit rate : 75 b/s
    Count of elements : 1757
    Stream size : 58.4 KiB (0%)
    Title : Sub English SRT
    Language : English
    Default : No
    Forced : No






    Download:filecondo
    http://www.filecondo.com/dl.php?f=3910001MDcYA
    Download:cornfile
    https://www.cornfile.com/mq980pq0lx6b

  2. The Following 2 Users Say Thank You to Duckload.us For This Useful Post:

    Jodz14 (10-21-2021), Wesker_TOT (10-22-2021)

  3. #2
    Senior Member
    สมัครเมื่อ
    Dec 2013
    โพสต์
    3,352
    Thanks
    5,262
    Thanked 0 Times in 0 Posts
    ขอบคุณครับ...

  4. #3
    Senior Member
    สมัครเมื่อ
    Jul 2012
    โพสต์
    7,784
    Thanks
    0
    Thanked 0 Times in 0 Posts
    ขอบคุณมากจ้า

+ ตอบกลับกระทู้

ข้อมูลกระทู้

Users Browsing this Thread

ในขณะนี้มี 1 ท่านดูกระทู้อยู่. (0 สมาชิกและ 1 ผู้เยี่ยมชม)

     

กฎการโพสต์ข้อความ

  • ท่าน ไม่สามารถ ตั้งกระทู้ใหม่ได้
  • ท่าน ไม่สามารถ ตอบกระทู้ได้
  • ท่าน ไม่สามารถ แนบไฟล์ได้
  • ท่าน ไม่สามารถ แก้ไขข้อความโพสต์ได้
  • BB code สถานะ เปิด
  • Smilies สถานะ เปิด
  • [IMG] สถานะ เปิด
  • HTML สถานะ ปิด