+ ตอบกลับกระทู้
สรุปผลการค้นหา 1 ถึง 2 จากทั้งหมด 2
  1. #1
    Administrators รูปส่วนตัว Duckload.us
    สมัครเมื่อ
    Dec 2010
    โพสต์
    133,270
    Thanks
    7
    Thanked 136,898 Times in 60,533 Posts

    Lightbulb [จีน]-Fake Princess ชายากำมะลอ Ep.01-27 จบ [พากย์ไทย-ซับไทย]-WEB-DL.H.264.1080p. [Hi-def rip from Master]-[พากย์ไทย บรรยายไทย]



    ชายากำมะลอ Fake Princess ซีรีส์ออนไลน์ | ฉางเล่อ โจรภูเขาผู้รักเงินและอิสระเสรีจับพลัดจับผลูต้องปลอ มตัวเป็นหลิวอวี้เหยา พระชายาของรัชทายาทหลี่เช่อแทนเจ้าสาวตัวจริงที่หนีก ารแต่งงาน การปรับตัวในวังเป็นเรื่องยากเมื่อพระสวามีคอยจ้องจั บผิดอยู่ตลอดเวลา อย่างไรก็ตาม ความมีชีวิตชีวาของฉางเล่อได้ดึงดูดรัชทายาทจนไม่อาจ คลาดสายตา พร้อมๆ กับที่แผนชิงบัลลังก์ได้เริ่มต้นขึ้น

    Video
    ID : 1
    Format : AVC
    Format/Info : Advanced Video Codec
    Format profile : [email protected]
    Format settings : CABAC / 2 Ref Frames
    Format settings, CABAC : Yes
    Format settings, Reference : 2 frames
    Format settings, GOP : M=3, N=50
    Codec ID : V_MPEG4/ISO/AVC
    Duration : 45 min 28 s
    Bit rate mode : Constant
    Bit rate : 4 000 kb/s
    Width : 1 920 pixels
    Height : 1 080 pixels
    Display aspect ratio : 16:9
    Frame rate mode : Constant
    Frame rate : 25.000 FPS
    Color space : YUV
    Chroma subsampling : 4:2:0
    Bit depth : 8 bits
    Scan type : Progressive
    Bits/(Pixel*Frame) : 0.077
    Stream size : 1.26 GiB (95%)
    Title : trueid
    Language : Thai
    Default : No
    Forced : No
    Color range : Limited
    Color primaries : BT.709
    Transfer characteristics : BT.709
    Matrix coefficients : BT.709
    VARIANT_BITRATE : 3982561

    Audio #1
    ID : 2
    Format : AAC LC
    Format/Info : Advanced Audio Codec Low Complexity
    Codec ID : A_AAC-2
    Duration : 45 min 28 s
    Bit rate : 93.4 kb/s
    Channel(s) : 2 channels
    Channel layout : L R
    Sampling rate : 48.0 kHz
    Frame rate : 46.875 FPS (1024 SPF)
    Compression mode : Lossy
    Delay relative to video : -40 ms
    Stream size : 30.4 MiB (2%)
    Title : trueid
    Language : Thai
    Default : Yes
    Forced : No
    Comment : Thai
    ID3V2_PRIV.COM.APPLE.STREAM : x00x00x00x00x00x00x00x00

    Audio #2
    ID : 3
    Format : AAC LC
    Format/Info : Advanced Audio Codec Low Complexity
    Codec ID : A_AAC-2
    Duration : 45 min 28 s
    Bit rate : 93.4 kb/s
    Channel(s) : 2 channels
    Channel layout : L R
    Sampling rate : 48.0 kHz
    Frame rate : 46.875 FPS (1024 SPF)
    Compression mode : Lossy
    Delay relative to video : -40 ms
    Stream size : 30.4 MiB (2%)
    Title : trueid
    Language : Chinese
    Default : No
    Forced : No
    Comment : Chinese
    ID3V2_PRIV.COM.APPLE.STREAM : x00x00x00x00x00x00x00x00

    Text
    ID : 4
    Format : UTF-8
    Codec ID : S_TEXT/UTF8
    Codec ID/Info : UTF-8 Plain Text
    Duration : 45 min 18 s
    Bit rate : 169 b/s
    Count of elements : 793
    Stream size : 56.2 KiB (0%)
    Title : trueid
    Language : Thai
    Default : Yes
    Forced : No

    Fake.Princess.2020.S01E27.1080p.WEB-DL.AAC.x264-(Spark751).mkv
    http://www.filecondo.com/dl.php?f=s4ed3c1MHozi

    Fake.Princess.2020.S01E26.1080p.WEB-DL.AAC.x264-(Spark751).mkv
    http://www.filecondo.com/dl.php?f=J668e81MHoyk

    Fake.Princess.2020.S01E25.1080p.WEB-DL.AAC.x264-(Spark751).mkv
    http://www.filecondo.com/dl.php?f=Sb7bc11MHoxm

    Fake.Princess.2020.S01E24.1080p.WEB-DL.AAC.x264-(Spark751).mkv
    http://www.filecondo.com/dl.php?f=qb92891MHowo

    Fake.Princess.2020.S01E23.1080p.WEB-DL.AAC.x264-(Spark751).mkv
    http://www.filecondo.com/dl.php?f=71a40d1MHovq

    Fake.Princess.2020.S01E22.1080p.WEB-DL.AAC.x264-(Spark751).mkv
    http://www.filecondo.com/dl.php?f=D8c8fb1MHour

    Fake.Princess.2020.S01E21.1080p.WEB-DL.AAC.x264-(Spark751).mkv
    http://www.filecondo.com/dl.php?f=23ef871MHotv

    Fake.Princess.2020.S01E20.1080p.WEB-DL.AAC.x264-(Spark751).mkv
    http://www.filecondo.com/dl.php?f=L0237c1MHost

    Fake.Princess.2020.S01E19.1080p.WEB-DL.AAC.x264-(Spark751).mkv
    http://www.filecondo.com/dl.php?f=e22c451MHory

    Fake.Princess.2020.S01E18.1080p.WEB-DL.AAC.x264-(Spark751).mkv
    http://www.filecondo.com/dl.php?f=74b1fc1MHoqA

    Fake.Princess.2020.S01E17.1080p.WEB-DL.AAC.x264-(Spark751).mkv
    http://www.filecondo.com/dl.php?f=M4c4701MHopB

    Fake.Princess.2020.S01E16.1080p.WEB-DL.AAC.x264-(Spark751).mkv
    http://www.filecondo.com/dl.php?f=8dd3e61MHooE

    Fake.Princess.2020.S01E15.1080p.WEB-DL.AAC.x264-(Spark751).mkv
    http://www.filecondo.com/dl.php?f=U163cb1MHonG

    Fake.Princess.2020.S01E14.1080p.WEB-DL.AAC.x264-(Spark751).mkv
    http://www.filecondo.com/dl.php?f=q0b0bb1MHomI

    Fake.Princess.2020.S01E13.1080p.WEB-DL.AAC.x264-(Spark751).mkv
    http://www.filecondo.com/dl.php?f=q2768d1MHolK

    Fake.Princess.2020.S01E12.1080p.WEB-DL.AAC.x264-(Spark751).mkv
    http://www.filecondo.com/dl.php?f=q6cb1e1MHokM

    Fake.Princess.2020.S01E11.1080p.WEB-DL.AAC.x264-(Spark751).mkv
    http://www.filecondo.com/dl.php?f=N723961MHojO

    Fake.Princess.2020.S01E10.1080p.WEB-DL.AAC.x264-(Spark751).mkv
    http://www.filecondo.com/dl.php?f=mf208e1MHoiQ

    Fake.Princess.2020.S01E09.1080p.WEB-DL.AAC.x264-(Spark751).mkv
    http://www.filecondo.com/dl.php?f=72b92b1MHohS

    Fake.Princess.2020.S01E08.1080p.WEB-DL.AAC.x264-(Spark751).mkv
    http://www.filecondo.com/dl.php?f=v346b21MHogU

    Fake.Princess.2020.S01E07.1080p.WEB-DL.AAC.x264-(Spark751).mkv
    http://www.filecondo.com/dl.php?f=Sef4f71MHofW

    Fake.Princess.2020.S01E06.1080p.WEB-DL.AAC.x264-(Spark751).mkv
    http://www.filecondo.com/dl.php?f=23888e1MHoeY

    Fake.Princess.2020.S01E05.1080p.WEB-DL.AAC.x264-(Spark751).mkv
    http://www.filecondo.com/dl.php?f=L750e61MHoe0

    Fake.Princess.2020.S01E04.1080p.WEB-DL.AAC.x264-(Spark751).mkv
    http://www.filecondo.com/dl.php?f=Y5619f1MHod2

    Fake.Princess.2020.S01E03.1080p.WEB-DL.AAC.x264-(Spark751).mkv
    http://www.filecondo.com/dl.php?f=X1ad401MHoc5

    Fake.Princess.2020.S01E02.1080p.WEB-DL.AAC.x264-(Spark751).mkv
    http://www.filecondo.com/dl.php?f=889b8d1MHob4

    Fake.Princess.2020.S01E01.1080p.WEB-DL.AAC.x264-(Spark751).mkv
    http://www.filecondo.com/dl.php?f=v27b521MHoa7

  2. The Following User Says Thank You to Duckload.us For This Useful Post:

    thatsna4555555 (11-07-2021)

  3. #2
    Senior Member
    สมัครเมื่อ
    Aug 2012
    โพสต์
    371
    Thanks
    0
    Thanked 0 Times in 0 Posts
    รบกวนตอนที่ 20 ด้วยครับ ดูได้ครึ่งเดียวครับ ที่เหลือภาพค้างเสียครับ ขอบคุณมากครับ

+ ตอบกลับกระทู้

ข้อมูลกระทู้

Users Browsing this Thread

ในขณะนี้มี 1 ท่านดูกระทู้อยู่. (0 สมาชิกและ 1 ผู้เยี่ยมชม)

     

กฎการโพสต์ข้อความ

  • ท่าน ไม่สามารถ ตั้งกระทู้ใหม่ได้
  • ท่าน ไม่สามารถ ตอบกระทู้ได้
  • ท่าน ไม่สามารถ แนบไฟล์ได้
  • ท่าน ไม่สามารถ แก้ไขข้อความโพสต์ได้
  • BB code สถานะ เปิด
  • Smilies สถานะ เปิด
  • [IMG] สถานะ เปิด
  • HTML สถานะ ปิด