+ ตอบกลับกระทู้
สรุปผลการค้นหา 1 ถึง 1 จากทั้งหมด 1
  1. #1
    Administrators รูปส่วนตัว Duckload.us
    สมัครเมื่อ
    Dec 2010
    โพสต์
    135,849
    Thanks
    7
    Thanked 140,644 Times in 61,731 Posts

    Lightbulb [จีน]-The King of Blaze 2 (2018) ราชันอัคคี ปี 2 Ep.01-28 จบ [พากย์ไทย-ซับไทย]-WEB-DL.H.264.1080p. [Hi-def rip from Master]-[พากย์ไทย บรรยายไทย]



    จากสงครามครั้งใหญ่ในอดีต ทำให้แดนเทพใกล้เป็นดาวร้าง เทพอัคคีจ้งเทียน (เฉินป๋อหลิน) จึงยังคงทำภารกิจตามหาวิธีกอบกู้แดนเทพต่อไป เวลาผ่านไป 1,365 ปีที่เขาได้มายังโลกมนุษย์ เทพอัคคีในชื่อใหม่ 'หลินเย่' ได้ก่อตั้งแผนกวิจัยลับภายใต้ชื่อโครงการเพลิงราชัน เพื่อค้นหาสสารที่จะมาเป็นพลังงานฟื้นฟูแดนเทพ แต่ก็มี ถงเฟิง (จิ่งเถียน) นักข่าวสาวหน้าตาคล้ายเชียนเม่ยมาคอยตามสืบเรื่องของ เขา ในขณะที่แผนงานกำลังดำเนินไปได้ด้วยดี ก็มีคนวางแผนขโมยงานวิจัยของพวกเขาไปใช้ในทางที่ผิด

    Screenshot


    Video
    ID : 1
    Format : AVC
    Format/Info : Advanced Video Codec
    Format profile : [email protected]
    Format settings : CABAC / 4 Ref Frames
    Format settings, CABAC : Yes
    Format settings, Reference : 4 frames
    Codec ID : V_MPEG4/ISO/AVC
    Duration : 43 min 58 s
    Bit rate : 4 000 kb/s
    Width : 1 920 pixels
    Height : 1 080 pixels
    Display aspect ratio : 16:9
    Frame rate mode : Constant
    Frame rate : 25.000 FPS
    Color space : YUV
    Chroma subsampling : 4:2:0
    Bit depth : 8 bits
    Scan type : Progressive
    Bits/(Pixel*Frame) : 0.077
    Stream size : 1.24 GiB (94%)
    Writing library : x264 core 148
    Encoding settings : cabac=1 / ref=3 / deblock=1:0:0 / analyse=0x3:0x113 / me=hex / subme=7 / psy=1 / psy_rd=1.00:0.00 / mixed_ref=1 / me_range=16 / chroma_me=1 / trellis=1 / 8x8dct=1 / cqm=0 / deadzone=21,11 / fast_pskip=1 / chroma_qp_offset=-2 / threads=18 / lookahead_threads=3 / sliced_threads=0 / nr=0 / decimate=1 / interlaced=0 / bluray_compat=0 / constrained_intra=0 / bframes=3 / b_pyramid=2 / b_adapt=1 / b_bias=0 / direct=1 / weightb=1 / open_gop=0 / weightp=2 / keyint=240 / keyint_min=121 / scenecut=40 / intra_refresh=0 / rc_lookahead=40 / rc=abr / mbtree=1 / bitrate=4000 / ratetol=1.0 / qcomp=0.60 / qpmin=0 / qpmax=69 / qpstep=4 / ip_ratio=1.40 / aq=1:1.00
    Language : Chinese
    Default : Yes
    Forced : No

    Audio #1
    ID : 2
    Format : AAC LC
    Format/Info : Advanced Audio Codec Low Complexity
    Codec ID : A_AAC-2
    Duration : 43 min 58 s
    Bit rate : 128 kb/s
    Channel(s) : 2 channels
    Channel layout : L R
    Sampling rate : 48.0 kHz
    Frame rate : 46.875 FPS (1024 SPF)
    Compression mode : Lossy
    Stream size : 40.3 MiB (3%)
    Language : Thai
    Default : Yes
    Forced : No

    Audio #2
    ID : 3
    Format : AAC LC
    Format/Info : Advanced Audio Codec Low Complexity
    Codec ID : A_AAC-2
    Duration : 43 min 58 s
    Bit rate : 128 kb/s
    Channel(s) : 2 channels
    Channel layout : L R
    Sampling rate : 48.0 kHz
    Frame rate : 46.875 FPS (1024 SPF)
    Compression mode : Lossy
    Stream size : 40.3 MiB (3%)
    Language : Chinese
    Default : Yes
    Forced : No

    Text
    ID : 4
    Format : ASS
    Codec ID : S_TEXT/ASS
    Codec ID/Info : Advanced Sub Station Alpha
    Duration : 39 min 47 s
    Bit rate : 205 b/s
    Count of elements : 679
    Compression mode : Lossless
    Stream size : 60.0 KiB (0%)
    Language : Thai
    Default : Yes
    Forced : No

    The.King.of.Blaze.S02E33.1080p.WEB-DL.H.264.mkv
    http://www.filecondo.com/dl.php?f=i55ecf1MHD6m

    The.King.of.Blaze.S02E32.1080p.WEB-DL.H.264.mkv
    http://www.filecondo.com/dl.php?f=492fcb1MHD5n

    The.King.of.Blaze.S02E31.1080p.WEB-DL.H.264.mkv
    http://www.filecondo.com/dl.php?f=m2c0531MHD4q

    The.King.of.Blaze.S02E30.1080p.WEB-DL.H.264.mkv
    http://www.filecondo.com/dl.php?f=r999831MHD3r

    The.King.of.Blaze.S02E29.1080p.WEB-DL.H.264.mkv
    http://www.filecondo.com/dl.php?f=e3f1431MHD2t

    The.King.of.Blaze.S02E28.1080p.WEB-DL.H.264.mkv
    http://www.filecondo.com/dl.php?f=P5bad81MHD1v

    The.King.of.Blaze.S02E27.1080p.WEB-DL.H.264.mkv
    http://www.filecondo.com/dl.php?f=a625f51MHD0y

    The.King.of.Blaze.S02E26.1080p.WEB-DL.H.264.mkv
    http://www.filecondo.com/dl.php?f=C497511MHCZz

    The.King.of.Blaze.S02E25.1080p.WEB-DL.H.264.mkv
    http://www.filecondo.com/dl.php?f=4432ea1MHCYC

    The.King.of.Blaze.S02E24.1080p.WEB-DL.H.264.mkv
    http://www.filecondo.com/dl.php?f=H1564d1MHCXN

    The.King.of.Blaze.S02E23.1080p.WEB-DL.H.264.mkv
    http://www.filecondo.com/dl.php?f=g7d3a41MHCWP

    The.King.of.Blaze.S02E22.1080p.WEB-DL.H.264.mkv
    http://www.filecondo.com/dl.php?f=C5610d1MHCWh

    The.King.of.Blaze.S02E21.1080p.WEB-DL.H.264.mkv
    http://www.filecondo.com/dl.php?f=R7a9eb1MHCV4

    The.King.of.Blaze.S02E20.1080p.WEB-DL.H.264.mkv
    http://www.filecondo.com/dl.php?f=Vba99a1MHCTM

    The.King.of.Blaze.S02E19.1080p.WEB-DL.H.264.mkv
    http://www.filecondo.com/dl.php?f=xe2d8b1MHCSN

    The.King.of.Blaze.S02E18.1080p.WEB-DL.H.264.mkv
    http://www.filecondo.com/dl.php?f=6f80191MHCRQ

    The.King.of.Blaze.S02E17.1080p.WEB-DL.H.264.mkv
    http://www.filecondo.com/dl.php?f=4576961MHCQQ

    The.King.of.Blaze.S02E16.1080p.WEB-DL.H.264.mkv
    http://www.filecondo.com/dl.php?f=Wc63021MHCPT

    The.King.of.Blaze.S02E15.1080p.WEB-DL.H.264.mkv
    http://www.filecondo.com/dl.php?f=h314ff1MHCOV

    The.King.of.Blaze.S02E14.1080p.WEB-DL.H.264.mkv
    http://www.filecondo.com/dl.php?f=9970b81MHCNW

    The.King.of.Blaze.S02E13.1080p.WEB-DL.H.264.mkv
    http://www.filecondo.com/dl.php?f=g7daab1MHCMZ

    The.King.of.Blaze.S02E12.1080p.WEB-DL.H.264.mkv
    http://www.filecondo.com/dl.php?f=R42edd1MHCM0

    The.King.of.Blaze.S02E11.1080p.WEB-DL.H.264.mkv
    http://www.filecondo.com/dl.php?f=J93d271MHCL3

    The.King.of.Blaze.S02E10.1080p.WEB-DL.H.264.mkv
    http://www.filecondo.com/dl.php?f=W1fcb11MHCK5

    The.King.of.Blaze.S02E09.1080p.WEB-DL.H.264.mkv
    http://www.filecondo.com/dl.php?f=k00f731MHCJ6

    The.King.of.Blaze.S02E08.1080p.WEB-DL.H.264.mkv
    http://www.filecondo.com/dl.php?f=V732781MHCI9

    The.King.of.Blaze.S02E07.1080p.WEB-DL.H.264.mkv
    http://www.filecondo.com/dl.php?f=2878ce1MHCHb

    The.King.of.Blaze.S02E06.1080p.WEB-DL.H.264.mkv
    http://www.filecondo.com/dl.php?f=N06d971MHCGd

    The.King.of.Blaze.S02E05.1080p.WEB-DL.H.264.mkv
    http://www.filecondo.com/dl.php?f=s136bd1MHCFe

    The.King.of.Blaze.S02E04.1080p.WEB-DL.H.264.mkv
    http://www.filecondo.com/dl.php?f=J73e361MHCEh

    The.King.of.Blaze.S02E03.1080p.WEB-DL.H.264.mkv
    http://www.filecondo.com/dl.php?f=I0252e1MHCDj

    The.King.of.Blaze.S02E02.1080p.WEB-DL.H.264.mkv
    http://www.filecondo.com/dl.php?f=55f98a1MHCCl

    The.King.of.Blaze.S02E01.1080p.WEB-DL.H.264.mkv
    http://www.filecondo.com/dl.php?f=F94c841MHCBo

  2. The Following User Says Thank You to Duckload.us For This Useful Post:

    alyssachia08 (12-04-2021)

+ ตอบกลับกระทู้

ข้อมูลกระทู้

Users Browsing this Thread

ในขณะนี้มี 1 ท่านดูกระทู้อยู่. (0 สมาชิกและ 1 ผู้เยี่ยมชม)

     

กฎการโพสต์ข้อความ

  • ท่าน ไม่สามารถ ตั้งกระทู้ใหม่ได้
  • ท่าน ไม่สามารถ ตอบกระทู้ได้
  • ท่าน ไม่สามารถ แนบไฟล์ได้
  • ท่าน ไม่สามารถ แก้ไขข้อความโพสต์ได้
  • BB code สถานะ เปิด
  • Smilies สถานะ เปิด
  • [IMG] สถานะ เปิด
  • HTML สถานะ ปิด