+ ตอบกลับกระทู้
สรุปผลการค้นหา 1 ถึง 2 จากทั้งหมด 2
  1. #1
    Administrators รูปส่วนตัว Duckload.us
    สมัครเมื่อ
    Dec 2010
    โพสต์
    133,190
    Thanks
    7
    Thanked 136,790 Times in 60,503 Posts

    Thumbs up [ฝรั่ง]-[AMAZON] Last Night in Soho (2021) ฝันหลอนที่โซโห-WEB-DL.EAC-3.Atmos.1080p. [Modified]-[พากย์อังกฤษ Atmos 5.1 บรรยายไทย (แปล)-อังกฤษ]



    ผลงานจากเอ็ดการ์ ไรท์ เรื่องราวจิตวิทยาสุดระทึกของเด็กสาวคนหนึ่ง ที่หลงใหลในงานแฟชั่นดีไซน์ เธอสามารถเข้าไปในโลกปี 1960 ไปพบกับสาวที่อยากเป็นนักร้อง ผู้เป็นไอดอลของเธอ แต่ลอนดอนปี 1960 ไม่ได้เป็นอย่างที่เห็นเท่านั้น กาลเวลาดูเหมือนว่าจะแตกสลายโดยมีผลลัพธ์ที่เลวร้าย


    Format : Matroska
    Format version : Version 4
    File size : 4.25 GiB
    Duration : 1 h 57 min
    Overall bit rate : 5 197 kb/s
    Encoded date : UTC 2021-11-22 12:38:12
    Writing application : mkvmerge v55.0.0 ('Waiting For Space') 64-bit
    Writing library : libebml v1.4.2 + libmatroska v1.6.4

    Video
    ID : 1
    Format : AVC
    Format/Info : Advanced Video Codec
    Format profile : [email protected]
    Format settings : CABAC / 3 Ref Frames
    Format settings, CABAC : Yes
    Format settings, Reference : 3 frames
    Codec ID : V_MPEG4/ISO/AVC
    Duration : 1 h 56 min
    Bit rate : 4 410 kb/s
    Width : 1 920 pixels
    Height : 800 pixels
    Display aspect ratio : 2.40:1
    Frame rate mode : Constant
    Frame rate : 23.976 (24000/1001) FPS
    Color space : YUV
    Chroma subsampling : 4:2:0
    Bit depth : 8 bits
    Scan type : Progressive
    Bits/(Pixel*Frame) : 0.120
    Stream size : 3.60 GiB (85%)
    Language : English
    Default : Yes
    Forced : No
    Color range : Limited
    Color primaries : BT.709
    Transfer characteristics : BT.709
    Matrix coefficients : BT.709

    Audio
    ID : 2
    Format : E-AC-3 JOC
    Format/Info : Enhanced AC-3 with Joint Object Coding
    Commercial name : Dolby Digital Plus with Dolby Atmos
    Codec ID : A_EAC3
    Duration : 1 h 57 min
    Bit rate mode : Constant
    Bit rate : 768 kb/s
    Channel(s) : 6 channels
    Channel layout : L R C LFE Ls Rs
    Sampling rate : 48.0 kHz
    Frame rate : 31.250 FPS (1536 SPF)
    Compression mode : Lossy
    Stream size : 643 MiB (15%)
    Title : E-AC3 Atmos English
    Language : English
    Service kind : Complete Main
    Default : Yes
    Forced : No
    Complexity index : 16
    Number of dynamic objects : 15
    Bed channel count : 1 channel
    Bed channel configuration : LFE

    Text #1
    ID : 3
    Format : VobSub
    Muxing mode : zlib
    Codec ID : S_VOBSUB
    Codec ID/Info : Picture based subtitle format used on DVDs
    Duration : 1 h 51 min
    Bit rate : 10.9 kb/s
    Count of elements : 1482
    Stream size : 8.69 MiB (0%)
    Title : Sub Thai 1080p
    Language : Thai
    Default : No
    Forced : No

    Text #2
    ID : 4
    Format : UTF-8
    Codec ID : S_TEXT/UTF8
    Codec ID/Info : UTF-8 Plain Text
    Duration : 1 h 51 min
    Bit rate : 113 b/s
    Count of elements : 1481
    Stream size : 92.4 KiB (0%)
    Title : Sub Thai SRT
    Language : Thai
    Default : No
    Forced : No

    Text #3
    ID : 5
    Format : PGS
    Muxing mode : zlib
    Codec ID : S_HDMV/PGS
    Codec ID/Info : Picture based subtitle format used on BDs/HD-DVDs
    Duration : 1 h 51 min
    Bit rate : 33.2 kb/s
    Count of elements : 2964
    Stream size : 26.4 MiB (1%)
    Title : Sub Thai PGS
    Language : Thai
    Default : Yes
    Forced : No

    Text #4
    ID : 6
    Format : UTF-8
    Codec ID : S_TEXT/UTF8
    Codec ID/Info : UTF-8 Plain Text
    Duration : 1 h 54 min
    Bit rate : 60 b/s
    Count of elements : 1883
    Stream size : 50.3 KiB (0%)
    Title : Sub English SRT
    Language : English
    Default : No
    Forced : No






    บรรยายไทย - อนันต์ โพธิสูง


    Download:filecondo
    Last Night in Soho (2021).mkv - 4.2 GB
    Last.Night.in.Soho.2021.1080p.WEB-DL.DDP5.1.Atmos.H.264.mkv - 6.1 GB

    Download:cornfile
    Last Night in Soho (2021).mkv - 4.2 GB
    Last.Night.in.Soho.2021.1080p.WEB-DL.DDP5.1.Atmos.H.264.mkv - 6.1 GB

  2. The Following 3 Users Say Thank You to Duckload.us For This Useful Post:

    jackjangri (11-26-2021), mettset (11-27-2021), noi54 (11-24-2021)

  3. #2
    Senior Member
    สมัครเมื่อ
    Jun 2011
    โพสต์
    375
    Thanks
    527
    Thanked 40 Times in 29 Posts
    thank you...

+ ตอบกลับกระทู้

ข้อมูลกระทู้

Users Browsing this Thread

ในขณะนี้มี 1 ท่านดูกระทู้อยู่. (0 สมาชิกและ 1 ผู้เยี่ยมชม)

     

กฎการโพสต์ข้อความ

  • ท่าน ไม่สามารถ ตั้งกระทู้ใหม่ได้
  • ท่าน ไม่สามารถ ตอบกระทู้ได้
  • ท่าน ไม่สามารถ แนบไฟล์ได้
  • ท่าน ไม่สามารถ แก้ไขข้อความโพสต์ได้
  • BB code สถานะ เปิด
  • Smilies สถานะ เปิด
  • [IMG] สถานะ เปิด
  • HTML สถานะ ปิด