+ ตอบกลับกระทู้
สรุปผลการค้นหา 1 ถึง 4 จากทั้งหมด 4
  1. #1
    Administrators รูปส่วนตัว Duckload.us
    สมัครเมื่อ
    Dec 2010
    โพสต์
    133,190
    Thanks
    7
    Thanked 136,790 Times in 60,503 Posts

    Thumbs up [ฝรั่ง]-Venom.Let.There.Be.Carnage.2021.1080p.AMZN.WEB-[พากย์อังกฤษ Atmos 5.1]-[บรรยายไทย-อังกฤษ]-[บรรยายไทย - อนันต์ โพธิสูง]-WEB-DL.H.264.1080p. [Modified]-[Soundtrack บรรยายไทย (แปล)]



    จะเป็นการเปิดตัวของตัวโหดของ คาร์เนจ มีโฮสต์เจ้าของร่างของ คลีตัส คาซาดี้ ที่รับบทโดย วู้ดดี้ ฮาร์เรลสัน ตัวละครนี้ไม่ได้เป็นแค่คนธรรมดาทั่วไป

    แต่เขาเป็นฆาตกรต่อเนื่องที่เต็มไปด้วยความโหดเหี้ยม ไร้ปราณี ซึ่ง คลีตัส ได้เชื้อปรสิตเข้าร่างมาจากการที่กัดมือของเอ็ดดี้ แล้วรับส่วนหนึ่งของปรสิตเข้ามา

    ก่อนที่มันจะเติบโตขยายร่างกลายเป็น คาร์เนจ ปรสิตสีแดงฉาน ที่มีความสามารถมากมาย พร้อมปะทะกับเอ็ดดี้ และ เวน่อม ซึ่งล่าสุด Venom: Let There be Carnage ไม่รอช้า

    ได้ปล่อยภาพความโหดคลั่งของเจ้าคาร์เนจรวมถึงตัวละคร ใหม่อย่าง Shriek อีกหนึ่งตัวละครจากคอมิกส์ในจักรวาลไอ้แมงมุม ซึ่งเราต้องลุ้นกันว่า

    เธอจะกลายเป็นคนรักของคลีตัสเหมือนกับในฉบับคอมิกส์ห รือไม่ แต่ไม่ว่าจะเป็นทางไหน ดูเหมือนว่าคราวนี้ เวน่อมกับเอ็ดดี้

    สองคู่หูจะต้องเผชิญหน้ากับศัตรูที่โหดร้ายที่สุดเท่ าที่พวกเขาเคยเจอมาเสียแล้ว รอชมพร้อมกันว่าจะเป็นอย่างไรใน Venom: Let There Be Carnage

    Format : Matroska
    Format version : Version 4
    File size : 4.97 GiB
    Duration : 1 h 37 min
    Overall bit rate : 7 310 kb/s
    Encoded date : UTC 2021-11-24 07:38:29
    Writing application : mkvmerge v63.0.0 ('Everything') 64-bit
    Writing library : libebml v1.4.2 + libmatroska v1.6.4

    Video
    ID : 1
    Format : AVC
    Format/Info : Advanced Video Codec
    Format profile : [email protected]
    Format settings : CABAC / 4 Ref Frames
    Format settings, CABAC : Yes
    Format settings, Reference frames : 4 frames
    Codec ID : V_MPEG4/ISO/AVC
    Duration : 1 h 37 min
    Bit rate : 6 509 kb/s
    Width : 1 920 pixels
    Height : 1 034 pixels
    Display aspect ratio : 1.85:1
    Frame rate mode : Constant
    Frame rate : 23.976 (24000/1001) FPS
    Color space : YUV
    Chroma subsampling : 4:2:0
    Bit depth : 8 bits
    Scan type : Progressive
    Bits/(Pixel*Frame) : 0.137
    Stream size : 4.42 GiB (89%)
    Language : English
    Default : Yes
    Forced : No
    Color range : Limited
    Color primaries : BT.709
    Transfer characteristics : BT.709
    Matrix coefficients : BT.709

    Audio
    ID : 2
    Format : E-AC-3 JOC
    Format/Info : Enhanced AC-3 with Joint Object Coding
    Commercial name : Dolby Digital Plus with Dolby Atmos
    Codec ID : A_EAC3
    Duration : 1 h 37 min
    Bit rate mode : Constant
    Bit rate : 768 kb/s
    Channel(s) : 6 channels
    Channel layout : L R C LFE Ls Rs
    Sampling rate : 48.0 kHz
    Frame rate : 31.250 FPS (1536 SPF)
    Compression mode : Lossy
    Stream size : 534 MiB (11%)
    Language : English
    Service kind : Complete Main
    Default : Yes
    Forced : No
    Complexity index : 16
    Number of dynamic objects : 15
    Bed channel count : 1 channel
    Bed channel configuration : LFE

    Text #1
    ID : 3
    Format : PGS
    Muxing mode : zlib
    Codec ID : S_HDMV/PGS
    Codec ID/Info : Picture based subtitle format used on BDs/HD-DVDs
    Duration : 1 h 27 min
    Bit rate : 29.5 kb/s
    Count of elements : 2448
    Stream size : 18.5 MiB (0%)
    Title : Thai PGS
    Language : Thai
    Default : Yes
    Forced : Yes

    Text #2
    ID : 4
    Format : UTF-8
    Codec ID : S_TEXT/UTF8
    Codec ID/Info : UTF-8 Plain Text
    Duration : 1 h 27 min
    Bit rate : 122 b/s
    Count of elements : 1224
    Stream size : 78.7 KiB (0%)
    Title : Thai SRT
    Language : Thai
    Default : No
    Forced : No

    Text #3
    ID : 5
    Format : VobSub
    Muxing mode : zlib
    Codec ID : S_VOBSUB
    Codec ID/Info : Picture based subtitle format used on DVDs
    Duration : 1 h 27 min
    Bit rate : 6 915 b/s
    Count of elements : 1224
    Stream size : 4.33 MiB (0%)
    Title : Thai Vob
    Language : Thai
    Default : No
    Forced : No

    Text #4
    ID : 6
    Format : PGS
    Muxing mode : zlib
    Codec ID : S_HDMV/PGS
    Codec ID/Info : Picture based subtitle format used on BDs/HD-DVDs
    Duration : 1 h 27 min
    Bit rate : 27.5 kb/s
    Count of elements : 2252
    Stream size : 17.2 MiB (0%)
    Title : English PGS
    Language : English
    Default : No
    Forced : No

    Text #5
    ID : 7
    Format : UTF-8
    Codec ID : S_TEXT/UTF8
    Codec ID/Info : UTF-8 Plain Text
    Duration : 1 h 27 min
    Bit rate : 50 b/s
    Count of elements : 1126
    Stream size : 32.4 KiB (0%)
    Title : English SRT
    Language : English
    Default : No
    Forced : No

    Text #6
    ID : 8
    Format : UTF-8
    Codec ID : S_TEXT/UTF8
    Codec ID/Info : UTF-8 Plain Text
    Duration : 1 h 27 min
    Bit rate : 50 b/s
    Count of elements : 1126
    Stream size : 32.4 KiB (0%)
    Title : English SRT
    Language : English
    Default : No
    Forced : No

    Text #7
    ID : 9
    Format : VobSub
    Muxing mode : zlib
    Codec ID : S_VOBSUB
    Codec ID/Info : Picture based subtitle format used on DVDs
    Duration : 1 h 27 min
    Bit rate : 8 938 b/s
    Count of elements : 1126
    Stream size : 5.59 MiB (0%)
    Title : English Vob
    Language : English
    Default : No
    Forced : No






    บรรยายไทย - อนันต์ โพธิสูง
    Download:filecondo
    venom.let.there.be.carnage.2021.1080p.web.h264.mkv - 5.0 GB
    Venom.Let.There.Be.Carnage.2021.1080P.DS4K.AMZN.WE B-DL.DDP5.1.H.264.mkv - 8.7 GB
    Download:cornfile
    venom.let.there.be.carnage.2021.1080p.web.h264.mkv - 5.0 GB
    Venom.Let.There.Be.Carnage.2021.1080P.DS4K.AMZN.WE B-DL.DDP5.1.H.264.mkv - 8.7 GB

  2. The Following 4 Users Say Thank You to Duckload.us For This Useful Post:

    jackjangri (11-26-2021), kappa (11-25-2021), mettset (11-27-2021), noi54 (11-26-2021)

  3. #2
    Senior Member
    สมัครเมื่อ
    Jul 2013
    โพสต์
    2,886
    Thanks
    0
    Thanked 0 Times in 0 Posts
    ขอบคุณครับ

  4. #3
    Senior Member
    สมัครเมื่อ
    Jun 2011
    โพสต์
    375
    Thanks
    527
    Thanked 40 Times in 29 Posts
    ขอบคุณครับ

  5. #4
    Senior Member
    สมัครเมื่อ
    Jul 2013
    โพสต์
    343
    Thanks
    1,132
    Thanked 0 Times in 0 Posts
    ขอบคุณมากๆนะคะ ^^

+ ตอบกลับกระทู้

ข้อมูลกระทู้

Users Browsing this Thread

ในขณะนี้มี 1 ท่านดูกระทู้อยู่. (0 สมาชิกและ 1 ผู้เยี่ยมชม)

     

กฎการโพสต์ข้อความ

  • ท่าน ไม่สามารถ ตั้งกระทู้ใหม่ได้
  • ท่าน ไม่สามารถ ตอบกระทู้ได้
  • ท่าน ไม่สามารถ แนบไฟล์ได้
  • ท่าน ไม่สามารถ แก้ไขข้อความโพสต์ได้
  • BB code สถานะ เปิด
  • Smilies สถานะ เปิด
  • [IMG] สถานะ เปิด
  • HTML สถานะ ปิด