+ ตอบกลับกระทู้
สรุปผลการค้นหา 1 ถึง 3 จากทั้งหมด 3
  1. #1
    Administrators รูปส่วนตัว Duckload.us
    สมัครเมื่อ
    Dec 2010
    โพสต์
    133,190
    Thanks
    7
    Thanked 136,790 Times in 60,503 Posts

    Thumbs up [ฝรั่ง] - Hawkeye (2021) Season 1 : Episode01- 02 - 1080p.WEB-DL [ เสียงอังกฤษ 5.1 + พากย์ไทย 5.1 ] ● [ บรรยายไทย + อังกฤษ PGS,SRT ] จาก Disney+ Hotstar TH






    Format : Matroska
    Format version : Version 4
    File size : 2.26 GiB
    Duration : 49 min 14 s
    Overall bit rate mode : Variable
    Overall bit rate : 6 563 kb/s
    Encoded date : UTC 2021-11-24 12:42:49
    Writing application : mkvmerge v20.0.0 ('I Am The Sun') 64-bit
    Writing library : libebml v1.3.5 + libmatroska v1.4.8

    Video
    ID : 1
    Format : AVC
    Format/Info : Advanced Video Codec
    Format profile : [email protected]
    Format settings : CABAC / 4 Ref Frames
    Format settings, CABAC : Yes
    Format settings, Reference : 4 frames
    Codec ID : V_MPEG4/ISO/AVC
    Duration : 49 min 14 s
    Bit rate mode : Variable
    Bit rate : 5 564 kb/s
    Maximum bit rate : 12.7 Mb/s
    Width : 1 920 pixels
    Height : 1 080 pixels
    Display aspect ratio : 16:9
    Frame rate mode : Constant
    Frame rate : 24.000 FPS
    Color space : YUV
    Chroma subsampling : 4:2:0
    Bit depth : 8 bits
    Scan type : Progressive
    Bits/(Pixel*Frame) : 0.112
    Stream size : 1.91 GiB (85%)
    Default : Yes
    Forced : No
    Color range : Limited
    Color primaries : BT.709
    Transfer characteristics : BT.709
    Matrix coefficients : BT.709

    Audio #1
    ID : 2
    Format : E-AC-3 JOC
    Format/Info : Enhanced AC-3 with Joint Object Coding
    Commercial name : Dolby Digital Plus with Dolby Atmos
    Codec ID : A_EAC3
    Duration : 49 min 14 s
    Bit rate mode : Constant
    Bit rate : 768 kb/s
    Channel(s) : 6 channels
    Channel layout : L R C LFE Ls Rs
    Sampling rate : 48.0 kHz
    Frame rate : 31.250 FPS (1536 SPF)
    Compression mode : Lossy
    Stream size : 270 MiB (12%)
    Title : English 5.1
    Language : English
    Service kind : Complete Main
    Default : No
    Forced : No
    Complexity index : 16
    Number of dynamic objects : 15
    Bed channel count : 1 channel
    Bed channel configuration : LFE

    Audio #2
    ID : 3
    Format : E-AC-3
    Format/Info : Enhanced AC-3
    Commercial name : Dolby Digital Plus
    Codec ID : A_EAC3
    Duration : 49 min 14 s
    Bit rate mode : Constant
    Bit rate : 192 kb/s
    Channel(s) : 6 channels
    Channel layout : L R C LFE Ls Rs
    Sampling rate : 48.0 kHz
    Frame rate : 31.250 FPS (1536 SPF)
    Compression mode : Lossy
    Stream size : 67.6 MiB (3%)
    Title : Thai 5.1 - Disney+ Hotstar TH @Kenobiiz
    Language : Thai
    Service kind : Complete Main
    Default : Yes
    Forced : No

    Text #1
    ID : 4
    Format : PGS
    Codec ID : S_HDMV/PGS
    Codec ID/Info : Picture based subtitle format used on BDs/HD-DVDs
    Duration : 44 min 54 s
    Bit rate : 39.8 kb/s
    Count of elements : 1514
    Stream size : 12.8 MiB (1%)
    Title : Thai PGS - From Disney+ Hotstar TH @Kenobiiz
    Language : Thai
    Default : No
    Forced : No

    Text #2
    ID : 5
    Format : UTF-8
    Codec ID : S_TEXT/UTF8
    Codec ID/Info : UTF-8 Plain Text
    Duration : 49 min 10 s
    Bit rate : 149 b/s
    Count of elements : 758
    Stream size : 53.9 KiB (0%)
    Title : Thai SRT - From Disney+ Hotstar TH @Kenobiiz
    Language : Thai
    Default : No
    Forced : No

    Text #3
    ID : 6
    Format : UTF-8
    Codec ID : S_TEXT/UTF8
    Codec ID/Info : UTF-8 Plain Text
    Duration : 44 min 54 s
    Bit rate : 74 b/s
    Count of elements : 754
    Stream size : 24.4 KiB (0%)
    Title : English SRT
    Language : English
    Default : No
    Forced : No

    Menu
    00:00:13.667 : en:Previously On
    00:01:29.917 : en:Main
    00:03:02.875 : en:Intro
    00:03:07.833 : en:Main
    00:47:24.000 : en:Credits




    Download:filecondo
    1 http://www.filecondo.com/dl.php?f=j28a361MQbQB
    2 http://www.filecondo.com/dl.php?f=8cdac61MQbRP

    Download:cornfile
    Hawkeye.2021.S01E01.Never.Meet.Your.Heroes.1080p.D SNP.WEB-DL.DDP5.1.Atmos.H.264.TH.mkv - 2.2 GB
    Hawkeye.2021.S01E02.Hide.and.Seek.1080p.DSNP.WEB-DL.DDP5.1.Atmos.H.264.TH.mkv - 2.3 GB

  2. The Following 2 Users Say Thank You to Duckload.us For This Useful Post:

    neorun (11-25-2021), Wesker_TOT (11-26-2021)

  3. #2
    Senior Member
    สมัครเมื่อ
    Jul 2013
    โพสต์
    2,886
    Thanks
    0
    Thanked 0 Times in 0 Posts
    ขอบคุณครับ

  4. #3
    Senior Member
    สมัครเมื่อ
    Dec 2013
    โพสต์
    3,352
    Thanks
    5,262
    Thanked 0 Times in 0 Posts
    ขอบคุณครับ...

+ ตอบกลับกระทู้

ข้อมูลกระทู้

Users Browsing this Thread

ในขณะนี้มี 3 ท่านดูกระทู้อยู่. (0 สมาชิกและ 3 ผู้เยี่ยมชม)

     

กฎการโพสต์ข้อความ

  • ท่าน ไม่สามารถ ตั้งกระทู้ใหม่ได้
  • ท่าน ไม่สามารถ ตอบกระทู้ได้
  • ท่าน ไม่สามารถ แนบไฟล์ได้
  • ท่าน ไม่สามารถ แก้ไขข้อความโพสต์ได้
  • BB code สถานะ เปิด
  • Smilies สถานะ เปิด
  • [IMG] สถานะ เปิด
  • HTML สถานะ ปิด