+ ตอบกลับกระทู้
สรุปผลการค้นหา 1 ถึง 4 จากทั้งหมด 4
  1. #1
    Administrators รูปส่วนตัว Duckload.us
    สมัครเมื่อ
    Dec 2010
    โพสต์
    133,723
    Thanks
    7
    Thanked 137,859 Times in 60,869 Posts

    Thumbs up [ฝรั่ง] CANDYMAN (2021)ไอ้มือตะขอ [พากย์:อังกฤษ/ไทย มาสเตอร์][SUB:ไทย/อังกฤษ][1080p]



    เท่าที่ผู้พักอาศัยสามารถจำความได้ โครงการที่อยู่อาศัยของคาบรินี่ กรีน ในชิคาโก ถูกคุกคามโดยเรื่องผีที่เล่าแบบปากต่อปากเกี่ยวกับนั กฆ่าเหนือธรรมชาติที่มีตะขออยู่ในมือ ที่ถูกเรียกมาอย่างง่ายดาย เพียงยืนอยู่หน้ากระจกแล้วเรียกชื่อของเขา 5 ครั้ง ในปัจจุบัน หลังจากที่อาคารคาบรินีแห่งสุดท้ายถูกทำลายเมื่อทศวร รษที่ผ่านมา ศิลปินแนววิชวล แอนโธนี่ แม็คคอย (ยาห์ย่า อับดุล-มาทีน ที่ 2) และ เบรียน่า คาร์ทไรท์ (เทโยนาห์ พาร์ริส) ผู้อำนวยการแกลลอรี่ ซึ่งเป็นแฟนของเขา ย้ายไปอาศัยในคอนโดสุดหรูสไตล์ลอฟท์ในคาบรินี่ ซึ่งได้รับการปรับปรุงและมีเหล่าหนุ่มสาวมิลเลนเนียล พักอาศัยอยู่

    ด้วยอาชีพการเป็นจิตรกรที่ไม่ค่อยรุ่งสักเท่าไหร่ วันหนึ่ง เขาได้เจอกับคนเก่าแก่ของคาบรินี่ วิลเลี่ยม เบิร์ค (โคลแมน โดมิงโก้) ที่ได้เปิดเผยต่อ แอนโธนี่ เกี่ยวกับธรรมชาติของความสะพรึงของเรื่องจริงเกี่ยวก ับ "แคนดี้แมน" จนทำให้ แอนโธนี่ เริ่มค้นหาข้อมูลอันน่าขนลุกในสตูดิโอของเขาเช่นเดีย วกับความสดใหม่สำหรับภาพวาด ในขณะที่ต้องรักษาสถานะในโลกศิลปะในชิคาโก เป็นการเปิดประตูสู่อดีตที่ซับซ้อนที่ปลดปล่อยความปก ติของจิตใจและกระแสความรุนแรงที่น่าสยดสยอง ที่ทำให้เขาเข้ามาสู่ความขัดแย้ง

    Format : Matroska
    Format version : Version 4
    File size : 4.37 GiB
    Duration : 1 h 31 min
    Overall bit rate : 6 868 kb/s
    Movie name : Candyman.2021.1080p.WEBRip.x264_©GOLD CUP™_WWW.TT-TORRENT.COM
    Video
    ID : 1
    Format : AVC
    Format/Info : Advanced Video Codec
    Format profile : [email protected]
    Format settings : CABAC / 4 Ref Frames
    Format settings, CABAC : Yes
    Format settings, Reference frames : 4 frames
    Codec ID : V_MPEG4/ISO/AVC
    Duration : 1 h 31 min
    Bit rate : 2 500 kb/s
    Width : 1 920 pixels
    Height : 800 pixels
    Display aspect ratio : 2.40:1
    Frame rate mode : Constant
    Frame rate : 23.976 (23976/1000) FPS
    Color space : YUV
    Chroma subsampling : 4:2:0
    Bit depth : 8 bits
    Scan type : Progressive
    Bits/(Pixel*Frame) : 0.068
    Stream size : 1.59 GiB (36%)
    Title : Candyman.2021.1080p.WEBRip.x264_©GOLD CUP™
    Writing library : x264 core 152 r2851M ba24899
    Language : English
    Default : Yes
    Forced : No

    Audio #1
    ID : 2
    Format : AAC LC
    Format/Info : Advanced Audio Codec Low Complexity
    Codec ID : A_AAC-2
    Duration : 1 h 31 min
    Bit rate : 224 kb/s
    Channel(s) : 6 channels
    Channel layout : C L R Ls Rs LFE
    Sampling rate : 48.0 kHz
    Frame rate : 46.875 FPS (1024 SPF)
    Compression mode : Lossy
    Delay relative to video : -43 ms
    Stream size : 146 MiB (3%)
    Title : En.AAC_224 kbs.6 channels
    Language : English
    Default : Yes
    Forced : No

    Audio #2
    ID : 3
    Format : AC-3
    Format/Info : Audio Coding 3
    Commercial name : Dolby Digital
    Codec ID : A_AC3
    Duration : 1 h 31 min
    Bit rate mode : Constant
    Bit rate : 448 kb/s
    Channel(s) : 6 channels
    Channel layout : L R C LFE Ls Rs
    Sampling rate : 48.0 kHz
    Frame rate : 31.250 FPS (1536 SPF)
    Compression mode : Lossy
    Delay relative to video : -43 ms
    Stream size : 292 MiB (7%)
    Title : Th.5.1.AC3.448kb
    Language : Thai
    Service kind : Complete Main
    Default : Yes
    Forced : No

    Audio #3
    ID : 4
    Format : DTS
    Format/Info : Digital Theater Systems
    Codec ID : A_DTS
    Duration : 1 h 31 min
    Bit rate mode : Constant
    Bit rate : 3 646 kb/s
    Channel(s) : 6 channels
    Channel layout : C L R Ls Rs LFE
    Sampling rate : 44.1 kHz
    Frame rate : 43.066 FPS (1024 SPF)
    Bit depth : 16 bits
    Compression mode : Lossy
    Delay relative to video : -43 ms
    Stream size : 2.32 GiB (53%)
    Title : En.DTS.5.1_Sample Rate 44100
    Language : English
    Default : Yes
    Forced : No

    Text #1
    ID : 5
    Format : VobSub
    Muxing mode : zlib
    Codec ID : S_VOBSUB
    Codec ID/Info : Picture based subtitle format used on DVDs
    Duration : 1 h 26 min
    Bit rate : 11.1 kb/s
    Count of elements : 1110
    Stream size : 6.87 MiB (0%)
    Title : Th.Vob.2.100.90.White
    Language : Thai
    Default : Yes
    Forced : No

    Text #2
    ID : 6
    Format : VobSub
    Muxing mode : zlib
    Codec ID : S_VOBSUB
    Codec ID/Info : Picture based subtitle format used on DVDs
    Duration : 1 h 26 min
    Bit rate : 13.0 kb/s
    Count of elements : 1256
    Stream size : 8.02 MiB (0%)
    Title : EN.SDH.110.2.83.Yellow
    Language : English
    Default : No
    Forced : No

    Text #3
    ID : 7
    Format : PGS
    Muxing mode : zlib
    Codec ID : S_HDMV/PGS
    Codec ID/Info : Picture based subtitle format used on BDs/HD-DVDs
    Duration : 1 h 26 min
    Bit rate : 32.0 kb/s
    Count of elements : 2220
    Stream size : 19.7 MiB (0%)
    Title : Th.2.100.90.White
    Language : Thai
    Default : No
    Forced : No

    Text #4
    ID : 8
    Format : PGS
    Muxing mode : zlib
    Codec ID : S_HDMV/PGS
    Codec ID/Info : Picture based subtitle format used on BDs/HD-DVDs
    Duration : 1 h 26 min
    Bit rate : 39.4 kb/s
    Count of elements : 2512
    Stream size : 24.3 MiB (1%)
    Title : EN.SDH.110.2.83.Yellow
    Language : English
    Default : No
    Forced : No





    Download:filecondo
    http://www.filecondo.com/dl.php?f=W742491MRg9R
    Download:cornfile
    https://www.cornfile.com/7lo6jbqytr4t

  2. The Following 4 Users Say Thank You to Duckload.us For This Useful Post:

    bigbang06 (11-28-2021), Jodz14 (12-01-2021), noi54 (11-28-2021), Wesker_TOT (11-29-2021)

  3. #2
    Senior Member
    สมัครเมื่อ
    Dec 2013
    โพสต์
    3,423
    Thanks
    5,326
    Thanked 0 Times in 0 Posts
    ขอบคุณครับ...

  4. #3
    Senior Member
    สมัครเมื่อ
    Jul 2012
    โพสต์
    7,829
    Thanks
    0
    Thanked 0 Times in 0 Posts
    ขอบคุณมากจ้า

  5. #4
    Junior Member
    สมัครเมื่อ
    Mar 2021
    โพสต์
    17
    Thanks
    0
    Thanked 0 Times in 0 Posts
    เติมเงิน true money ไป 150 บาท ตัดบัตรไปแล้วแต่ยอดไม่เข้า โหลดไม่ได้ช่วยแก้ไขด้วยครับ

+ ตอบกลับกระทู้

ข้อมูลกระทู้

Users Browsing this Thread

ในขณะนี้มี 1 ท่านดูกระทู้อยู่. (0 สมาชิกและ 1 ผู้เยี่ยมชม)

     

กฎการโพสต์ข้อความ

  • ท่าน ไม่สามารถ ตั้งกระทู้ใหม่ได้
  • ท่าน ไม่สามารถ ตอบกระทู้ได้
  • ท่าน ไม่สามารถ แนบไฟล์ได้
  • ท่าน ไม่สามารถ แก้ไขข้อความโพสต์ได้
  • BB code สถานะ เปิด
  • Smilies สถานะ เปิด
  • [IMG] สถานะ เปิด
  • HTML สถานะ ปิด