+ ตอบกลับกระทู้
สรุปผลการค้นหา 1 ถึง 3 จากทั้งหมด 3
  1. #1
    Administrators รูปส่วนตัว Duckload.us
    สมัครเมื่อ
    Dec 2010
    โพสต์
    133,553
    Thanks
    7
    Thanked 137,645 Times in 60,796 Posts

    Lightbulb [ฝรั่ง]-THE MENTALIST (เจาะจิตผ่าปริศนา) ปี 5 เสียง FOX ไทย-WEB-DL.H.265.1080p. [From TV]-[พากย์ไทย/ENG] [SUB:ENG]

    Patrick Jane ชายหนุ่มช่างสังเกตและมีความสามารถพิเศษในการสะกดจิต คน ได้เข้ามาเป็นที่ปรึกษาให้กับทีมสืบสวนของ CBI หลังจากสูญเสียภรรยาและลูกให้กับฆาตกรต่อเนื่อง Red John ที่ยังลอยนวล วิธีการสืบสวนนอกตำราของ Jane ทำให้หัวหน้าสาวสวยอย่าง Teresa Lisbon ต้องคอยรับมือกับสารพัดปัญหาที่เกิดขึ้นตามมา แต่ดูเหมือนสมาชิกในทีมคนอื่นๆจะหลงเสน่ห์ความบ้าและ ความอัจฉริยะของเขาเสียแล้ว



    ---------------
    General
    Unique ID : 135123615401660858157287958268732261005 (0x65A7DC98FFF58DA5E82FDEE71680428D)
    Complete name : E:THE MENTALIST S05 (1080p AMZN WEB-DL)THE MENTALIST - S05E15 - RED LACQUER NAIL POLISH.mkv
    Format : Matroska
    Format version : Version 4
    File size : 987 MiB
    Duration : 41 min 48 s
    Overall bit rate : 3 299 kb/s
    Encoded date : UTC 2021-11-04 06:52:55
    Writing application : mkvmerge v61.0.0 ('So') 64-bit
    Writing library : libebml v1.4.2 + libmatroska v1.6.4

    Video
    ID : 1
    Format : HEVC
    Format/Info : High Efficiency Video Coding
    Format profile : Main [email protected]@Main
    Codec ID : V_MPEGH/ISO/HEVC
    Duration : 41 min 48 s
    Bit rate : 2 209 kb/s
    Width : 1 920 pixels
    Height : 1 080 pixels
    Display aspect ratio : 16:9
    Frame rate mode : Constant
    Frame rate : 23.976 (24000/1001) FPS
    Color space : YUV
    Chroma subsampling : 4:2:0
    Bit depth : 10 bits
    Bits/(Pixel*Frame) : 0.044
    Stream size : 661 MiB (67%)
    Writing library : x265 2.8+1-478bfe2b7673:[Windows][GCC 8.1.0][64 bit] 10bit
    Encoding settings : cpuid=1111039 / frame-threads=3 / numa-pools=12 / wpp / no-pmode / no-pme / no-psnr / no-ssim / log-level=2 / input-csp=1 / input-res=1920x1080 / interlace=0 / total-frames=60155 / level-idc=0 / high-tier=1 / uhd-bd=0 / ref=4 / no-allow-non-conformance / no-repeat-headers / annexb / no-aud / no-hrd / info / hash=0 / no-temporal-layers / open-gop / min-keyint=23 / keyint=250 / gop-lookahead=0 / bframes=8 / b-adapt=2 / b-pyramid / bframe-bias=0 / rc-lookahead=70 / lookahead-slices=4 / scenecut=40 / radl=0 / no-intra-refresh / ctu=64 / min-cu-size=8 / no-rect / no-amp / max-tu-size=32 / tu-inter-depth=1 / tu-intra-depth=1 / limit-tu=0 / rdoq-level=2 / dynamic-rd=0.00 / no-ssim-rd / signh-i-d-e / no-tskip / nr-intra=0 / nr-inter=0 / no-constrained-intra / strong-intra-smoothing / max-merge=3 / limit-refs=3 / limit-modes / me=3 / subme=5 / merange=57 / temporal-mvp / weightp / weightb / no-analyze-src-pics / deblock=-1:-1 / sao / no-sao-non-deblock / rd=4 / no-early-skip / rskip / no-fast-intra / no-tskip-fast / no-cu-lossless / no-b-intra / no-splitrd-skip / rdpenalty=0 / psy-rd=1.70 / psy-rdoq=1.00 / no-rd-refine / no-lossless / cbqpoffs=0 / crqpoffs=0 / rc=crf / crf=22.0 / qcomp=0.60 / qpstep=4 / stats-write=0 / stats-read=0 / ipratio=1.40 / pbratio=1.30 / aq-mode=3 / aq-strength=1.00 / cutree / zone-count=0 / no-strict-cbr / qg-size=32 / no-rc-grain / qpmax=69 / qpmin=0 / no-const-vbv / sar=0 / overscan=0 / videoformat=5 / range=0 / colorprim=2 / transfer=2 / colormatrix=2 / chromaloc=0 / display-window=0 / max-cll=0,0 / min-luma=0 / max-luma=1023 / log2-max-poc-lsb=8 / vui-timing-info / vui-hrd-info / slices=1 / no-opt-qp-pps / no-opt-ref-list-length-pps / no-multi-pass-opt-rps / scenecut-bias=0.00 / no-opt-cu-delta-qp / aq-motion / no-hdr / no-hdr-opt / no-dhdr10-opt / no-idr-recovery-sei / analysis-reuse-level=5 / scale-factor=0 / refine-intra=0 / refine-inter=0 / refine-mv=0 / no-limit-sao / ctu-info=0 / no-lowpass-dct / refine-mv-type=0 / copy-pic=1 / max-ausize-factor=1.0 / no-dynamic-refine / no-single-sei
    Default : Yes
    Forced : No

    Audio #1
    ID : 2
    Format : AC-3
    Format/Info : Audio Coding 3
    Commercial name : Dolby Digital
    Codec ID : A_AC3
    Duration : 41 min 48 s
    Bit rate mode : Constant
    Bit rate : 448 kb/s
    Channel(s) : 6 channels
    Channel layout : L R C LFE Ls Rs
    Sampling rate : 48.0 kHz
    Frame rate : 31.250 FPS (1536 SPF)
    Compression mode : Lossy
    Stream size : 134 MiB (14%)
    Title : ไทย
    Language : Thai
    Service kind : Complete Main
    Default : Yes
    Forced : No

    Audio #2
    ID : 3
    Format : E-AC-3
    Format/Info : Enhanced AC-3
    Commercial name : Dolby Digital Plus
    Codec ID : A_EAC3
    Duration : 41 min 48 s
    Bit rate mode : Constant
    Bit rate : 640 kb/s
    Channel(s) : 6 channels
    Channel layout : L R C LFE Ls Rs
    Sampling rate : 48.0 kHz
    Frame rate : 31.250 FPS (1536 SPF)
    Compression mode : Lossy
    Stream size : 191 MiB (19%)
    Title : ENG
    Language : English
    Service kind : Complete Main
    Default : No
    Forced : No

    Text
    ID : 4
    Format : UTF-8
    Codec ID : S_TEXT/UTF8
    Codec ID/Info : UTF-8 Plain Text
    Duration : 41 min 23 s
    Bit rate : 106 b/s
    Count of elements : 966
    Stream size : 32.4 KiB (0%)
    Title : ENG
    Language : English
    Default : No
    Forced : No




    THE_MENTALIST_-_S05E22_-_RED_JOHN'S_RULES.mkv
    http://www.filecondo.com/dl.php?f=D1b7101MNpk8
    THE_MENTALIST_-_S05E21_-_RED_AND_ITCHY.mkv
    http://www.filecondo.com/dl.php?f=S7f2d71MNpjb
    THE_MENTALIST_-_S05E20_-_RED_VELVET_CUPCAKES.mkv
    http://www.filecondo.com/dl.php?f=r7f7bb1MNpig
    THE_MENTALIST_-_S05E19_-_RED_LETTER_DAY.mkv
    http://www.filecondo.com/dl.php?f=l7dacf1MNpeu
    THE_MENTALIST_-_S05E18_-_BEHIND_THE_RED_CURTAIN.mkv
    http://www.filecondo.com/dl.php?f=U0aa061MNpd5
    THE_MENTALIST_-_S05E17_-_RED,WHITE_AND_BLUE.mkv
    http://www.filecondo.com/dl.php?f=b267fc1MNpbw
    THE_MENTALIST_-_S05E16_-_THERE_WILL_BE_BLOOD.mkv
    http://www.filecondo.com/dl.php?f=zbf05d1MNpaz
    THE_MENTALIST_-_S05E15_-_RED_LACQUER_NAIL_POLISH.mkv
    http://www.filecondo.com/dl.php?f=P25bb41MNp9g
    THE_MENTALIST_-_S05E14_-_RED_IN_TOOTH_AND_CLAW.mkv
    http://www.filecondo.com/dl.php?f=r891791MNp8i
    THE_MENTALIST_-_S05E13_-_THE_RED_BAM.mkv
    http://www.filecondo.com/dl.php?f=idad361MNp7k
    THE_MENTALIST_-_S05E12_-_LITTLE_RED_CORVETTE.h264.mkv
    http://www.filecondo.com/dl.php?f=Ubb1b41MNp6z
    THE_MENTALIST_-_S05E11_-_DAYS_OF_WINE_&_ROSES.mkv
    http://www.filecondo.com/dl.php?f=X945cd1MNp5o
    THE_MENTALIST_-_S05E10_-_PANAMA_RED.mkv
    http://www.filecondo.com/dl.php?f=w6168f1MNp4r
    THE_MENTALIST_-_S05E06_-_CHERRY_PICKED.mkv
    http://www.filecondo.com/dl.php?f=Ef3a601MNp0x
    THE_MENTALIST_-_S05E05_-_RED_DAWN.mkv
    http://www.filecondo.com/dl.php?f=Yfe7e71MNoZB
    THE_MENTALIST_-_S05E04_-_BLOOD_FEUD.mkv
    http://www.filecondo.com/dl.php?f=2a89a11MNoYC
    THE_MENTALIST_-_S05E03_-_NOT_ONE_RED_CENT.mkv
    http://www.filecondo.com/dl.php?f=wb83da1MNoXU
    THE_MENTALIST_-_S05E02_-_DEVIL'S_CHERRY.mkv
    http://www.filecondo.com/dl.php?f=Bf93971MNoWG
    THE_MENTALIST_-_S05E01_-_THE_CRIMSON_TICKET.mkv
    http://www.filecondo.com/dl.php?f=P8e2d21MNoVI

  2. #2
    Member
    สมัครเมื่อ
    Oct 2015
    โพสต์
    46
    Thanks
    0
    Thanked 0 Times in 0 Posts
    S05e07 - 09 ไม่มีครับ

  3. #3
    Senior Member
    สมัครเมื่อ
    Jul 2012
    โพสต์
    7,810
    Thanks
    0
    Thanked 0 Times in 0 Posts
    ใช่ ตามนั้น ขอบคุณมากจ้า

+ ตอบกลับกระทู้

ข้อมูลกระทู้

Users Browsing this Thread

ในขณะนี้มี 1 ท่านดูกระทู้อยู่. (0 สมาชิกและ 1 ผู้เยี่ยมชม)

     

กฎการโพสต์ข้อความ

  • ท่าน ไม่สามารถ ตั้งกระทู้ใหม่ได้
  • ท่าน ไม่สามารถ ตอบกระทู้ได้
  • ท่าน ไม่สามารถ แนบไฟล์ได้
  • ท่าน ไม่สามารถ แก้ไขข้อความโพสต์ได้
  • BB code สถานะ เปิด
  • Smilies สถานะ เปิด
  • [IMG] สถานะ เปิด
  • HTML สถานะ ปิด