จู่ ๆ หลี่ชุนสี่ นักเขียนนิยายโรแมนซ์ไร้ชื่อก็เกิดอุบัติเหตุทางรถยน ต์ เมื่อเธอตื่นขึ้นมาก็พบว่าตัวเองคือเฉียนเจินเจิน เธอไม่เพียงแต่สูญเสียความทรงจำ เธอแต่ถูกบังคับให้ทำตามเสียงสั่งการให้ยั่วยวนโอวหย างเฉิน เจ้านายของตัวเอง โอวหยางเฉินหลงเฉียนเจินเจินหนักมาก คอยตามต้อยๆ แต่ลู่หลี ผู้ช่วยของเจินเจินได้ครอบครองหัวใจของเธอไปแล้ว แต่หารู้ไม่ว่า ลู่หลีคนใสซื่อ ไร้พิษสง กลับมีตัวตนที่สองซ่อนอยู่









Video
ID : 1
Format : AVC
Format/Info : Advanced Video Codec
Format profile : [email protected]
Format settings : CABAC / 3 Ref Frames
Format settings, CABAC : Yes
Format settings, Reference : 3 frames
Codec ID : V_MPEG4/ISO/AVC
Duration : 30 min 27 s
Bit rate : 1 634 kb/s
Width : 1 920 pixels
Height : 816 pixels
Display aspect ratio : 2.35:1
Frame rate mode : Constant
Frame rate : 25.000 FPS
Color space : YUV
Chroma subsampling : 4:2:0
Bit depth : 8 bits
Scan type : Progressive
Bits/(Pixel*Frame) : 0.042
Stream size : 356 MiB (89%)
Default : Yes
Forced : No
Color range : Limited
Color primaries : BT.709
Transfer characteristics : BT.709
Matrix coefficients : BT.709

Audio
ID : 2
Format : AAC LC
Format/Info : Advanced Audio Codec Low Complexity
Codec ID : A_AAC-2
Duration : 30 min 27 s
Bit rate : 192 kb/s
Channel(s) : 2 channels
Channel layout : L R
Sampling rate : 44.1 kHz
Frame rate : 43.066 FPS (1024 SPF)
Compression mode : Lossy
Stream size : 41.3 MiB (10%)
Default : Yes
Forced : No

Text #1
ID : 3
Format : ASS
Codec ID : S_TEXT/ASS
Codec ID/Info : Advanced Sub Station Alpha
Duration : 28 min 38 s
Bit rate : 178 b/s
Count of elements : 419
Compression mode : Lossless
Stream size : 37.5 KiB (0%)
Title : Thai Spark (Pc)
Language : Thai
Default : Yes
Forced : No

Text #2
ID : 4
Format : ASS
Codec ID : S_TEXT/ASS
Codec ID/Info : Advanced Sub Station Alpha
Duration : 28 min 38 s
Bit rate : 178 b/s
Count of elements : 419
Compression mode : Lossless
Stream size : 37.5 KiB (0%)
Title : Thai Spark (TV)
Language : Thai
Default : No
Forced : No

Text #3
ID : 5
Format : UTF-8
Codec ID : S_TEXT/UTF8
Codec ID/Info : UTF-8 Plain Text
Duration : 28 min 38 s
Bit rate : 136 b/s
Count of elements : 419
Stream size : 28.6 KiB (0%)
Title : Thai Spark (Srt)
Language : Thai
Default : No
Forced : No




Oh.My.Drama.Lover.2020.โลกสองใบของยัยนักเขียน.S01E 24.1080p.WEB-DL.AAC.H264-(Spark751).mkv
http://www.filecondo.com/dl.php?f=le5a2c1MNLu4
Oh.My.Drama.Lover.2020.โลกสองใบของยัยนักเขียน.S01E 23.1080p.WEB-DL.AAC.H264-(Spark751).mkv
http://www.filecondo.com/dl.php?f=Be4a521MNLt6
Oh.My.Drama.Lover.2020.โลกสองใบของยัยนักเขียน.S01E 22.1080p.WEB-DL.AAC.H264-(Spark751).mkv
http://www.filecondo.com/dl.php?f=v4b1821MNLs7
Oh.My.Drama.Lover.2020.โลกสองใบของยัยนักเขียน.S01E 21.1080p.WEB-DL.AAC.H264-(Spark751).mkv
http://www.filecondo.com/dl.php?f=q320c61MNLr9
Oh.My.Drama.Lover.2020.โลกสองใบของยัยนักเขียน.S01E 20.1080p.WEB-DL.AAC.H264-(Spark751).mkv
http://www.filecondo.com/dl.php?f=pe51e21MNLqc
Oh.My.Drama.Lover.2020.โลกสองใบของยัยนักเขียน.S01E 19.1080p.WEB-DL.AAC.H264-(Spark751).mkv
http://www.filecondo.com/dl.php?f=248e0a1MNLpe
Oh.My.Drama.Lover.2020.โลกสองใบของยัยนักเขียน.S01E 18.1080p.WEB-DL.AAC.H264-(Spark751).mkv
http://www.filecondo.com/dl.php?f=m6c98c1MNLof
Oh.My.Drama.Lover.2020.โลกสองใบของยัยนักเขียน.S01E 17.1080p.WEB-DL.AAC.H264-(Spark751).mkv
http://www.filecondo.com/dl.php?f=ce731b1MNLnj
Oh.My.Drama.Lover.2020.โลกสองใบของยัยนักเขียน.S01E 16.1080p.WEB-DL.AAC.H264-(Spark751).mkv
http://www.filecondo.com/dl.php?f=If8ee11MNLmk
Oh.My.Drama.Lover.2020.โลกสองใบของยัยนักเขียน.S01E 15.1080p.WEB-DL.AAC.H264-(Spark751).mkv
http://www.filecondo.com/dl.php?f=7755ca1MNLlm
Oh.My.Drama.Lover.2020.โลกสองใบของยัยนักเขียน.S01E 14.1080p.WEB-DL.AAC.H264-(Spark751).mkv
http://www.filecondo.com/dl.php?f=Ye03c81MNLko
Oh.My.Drama.Lover.2020.โลกสองใบของยัยนักเขียน.S01E 13.1080p.WEB-DL.AAC.H264-(Spark751).mkv
http://www.filecondo.com/dl.php?f=C9ac391MNLjp
Oh.My.Drama.Lover.2020.โลกสองใบของยัยนักเขียน.S01E 12.1080p.WEB-DL.AAC.H264-(Spark751).mkv
http://www.filecondo.com/dl.php?f=N14db61MNLis
Oh.My.Drama.Lover.2020.โลกสองใบของยัยนักเขียน.S01E 11.1080p.WEB-DL.AAC.H264-(Spark751).mkv
http://www.filecondo.com/dl.php?f=z197681MNLhx
Oh.My.Drama.Lover.2020.โลกสองใบของยัยนักเขียน.S01E 10.1080p.WEB-DL.AAC.H264-(Spark751).mkv
http://www.filecondo.com/dl.php?f=45cc3f1MNLgy
Oh.My.Drama.Lover.2020.โลกสองใบของยัยนักเขียน.S01E 09.1080p.WEB-DL.AAC.H264-(Spark751).mkv
http://www.filecondo.com/dl.php?f=pbf5f41MNLfy
Oh.My.Drama.Lover.2020.โลกสองใบของยัยนักเขียน.S01E 08.1080p.WEB-DL.AAC.H264-(Spark751).mkv
http://www.filecondo.com/dl.php?f=7602bf1MNLeA
Oh.My.Drama.Lover.2020.โลกสองใบของยัยนักเขียน.S01E 07.1080p.WEB-DL.AAC.H264-(Spark751).mkv
http://www.filecondo.com/dl.php?f=y9c49d1MNLdC
Oh.My.Drama.Lover.2020.โลกสองใบของยัยนักเขียน.S01E 06.1080p.WEB-DL.AAC.H264-(Spark751).mkv
http://www.filecondo.com/dl.php?f=I34cb21MNLcE
Oh.My.Drama.Lover.2020.โลกสองใบของยัยนักเขียน.S01E 05.1080p.WEB-DL.AAC.H264-(Spark751).mkv
http://www.filecondo.com/dl.php?f=l084d71MNLbG
Oh.My.Drama.Lover.2020.โลกสองใบของยัยนักเขียน.S01E 04.1080p.WEB-DL.AAC.H264-(Spark751).mkv
http://www.filecondo.com/dl.php?f=L9c7bf1MNLaH
Oh.My.Drama.Lover.2020.โลกสองใบของยัยนักเขียน.S01E 03.1080p.WEB-DL.AAC.H264-(Spark751).mkv
http://www.filecondo.com/dl.php?f=9bc1bc1MNL9K
Oh.My.Drama.Lover.2020.โลกสองใบของยัยนักเขียน.S01E 02.1080p.WEB-DL.AAC.H264-(Spark751).mkv
http://www.filecondo.com/dl.php?f=C3b1761MNL8M
Oh.My.Drama.Lover.2020.โลกสองใบของยัยนักเขียน.S01E 01.1080p.WEB-DL.AAC.H264-(Spark751).mkv
http://www.filecondo.com/dl.php?f=142f1c1MNL7O