+ ตอบกลับกระทู้
สรุปผลการค้นหา 1 ถึง 4 จากทั้งหมด 4
  1. #1
    Administrators รูปส่วนตัว Duckload.us
    สมัครเมื่อ
    Dec 2010
    โพสต์
    135,849
    Thanks
    7
    Thanked 140,644 Times in 61,731 Posts

    Lightbulb [เกาหลี]-[River Where the Moon Rises ลำนำจันทร์ฉาย Kim So Hyun, Na In Woo, Lee Ji Hoon, Choi Yoo Hwa, Lee Hae Young, Wang Bit Na TH Ep.1-20/End]-Encode.H.264.1080p. [From HD-TV]-[Sound:Thai/Korea]-[Sub:Thai]




    ซืรี่ย์เกาหลี: River Where the Moon Rises
    ชื่อภาษาไทย: ลำนำจันทร์ฉาย
    ประเภท: Historical, Romance
    นักแสดง: Kim So Hyun, Na In Woo, Lee Ji Hoon, Choi Yoo Hwa, Lee Hae Young, Wang Bit Na
    จำนวนตอน: 20
    เขียนบทโดย: Han Ji Hoon
    ผู้กำกับ: Yoon Sang Ho
    ออกอากาศทางสถานีโทรทัศน์: VIU
    เริ่มออกอากาศ: -
    เวลาออกอากาศ: -
    นักแสดง:
    Kim So Hyun as Pyunggang / Yum Ka Jin
    Heo Jung Eun as teen Pyunggang
    Na In Woo as On Dal
    Seo Dong Hyun as teen On Dal
    Lee Ji Hoon as Ko Kun
    Park Min Sang as teen Ko Kun
    Choi Yoo Hwa as Hae Mo Yong
    Royal Palace
    Kim Bup Rae as King Pyungwon
    Cha Kwang Soo as Jin Pil
    Kim Jung Young as Kong Son
    Kim So Hyun as Queen Yun
    Son Woo Hyuk as Tae Kam
    Ahn Shin Woo as Kim Pyung Ji
    Wang Bit Na as Jin Bi
    Ki Eun Se as Hyun Bi
    Park Sang Hoon as Prince Ko Won
    Kwon Hwa Woon as adult Ko Won
    Ghost village (Sunno Tribe)
    Kang Ha Neul as General On Hyup (On Dal's father) cameo
    Hwang Young Hee as Madame Sa
    Jung Wook as Sa Woon Ahm
    Kim Dong Young as Sa Poong Kae
    Kim Hyun Bin as young Sa Poong Kae
    Oh Ah Rin as Wol Yi
    Lee Sang Chan as Suk Koo
    Won Woo as Pil Koo
    Yoon Ah Jung as Hong Mae
    Gyeroo Tribe
    Lee Hae Young as Ko Won Pyo
    Yoon Joo Man as Ko Sang Chul
    Sono Tribe
    Jung In Kyum as Hae Ji Wol
    Chunjoobang
    Han Jae Young as Doo Joong Seo
    Ui Hyun as Tara San
    Kim Hee Jung as Tara Jin
    Moon Jin Seung as Ma Tae Mo
    Jung Eun Pyo as Yum Deuk
    Others
    Jasper Cho as Wol Kwang
    Ahn Soo Bin
    Jo Bok Rae
    Kim Seung Soo as King Jinheung (The King of Silla)
    Choi Kwang Je as Yang Chaek (Hwang Joo fortress)
    Sysopsis: ในช่วงเวลาแห่งความเกลียดชังและความสิ้นหวัง คำพูดกลายเป็นดั่งดาบที่ทำร้ายซึ่งกันและกัน ในท้ายที่สุด ดาบเหล่านั้นก็จะหันคมไปทำร้ายผู้ทิ่มแทงเอง ในโลกแห่งความจริงอันโหดร้าย เรื่องราวของแผ่นดินอันยิ่งใหญ่โคกูรยอ และเจ้าหญิงพยองกัง ธิดาองค์โตแห่งกษัตริย์องค์ที่ 25 พระเจ้าพยองวอน เจ้าหญิงพยองกังเกิดในสายเลือดของราชวงศ์ แต่กลับเติบโตมาเยี่ยงสามัญชน แม้ว่าจะมีศัตรูมากมายที่หมายจะเอาชีวิต เจ้าหญิงพยองกังก็ไม่เคยยอมให้เกิดขึ้นได้ง่าย ๆ ท่ามกลางความวุ่นวายและสงครามทางการเมืองต่าง ๆ เธอก็ยังยืนหยัดปกป้องบุคคลผู้เป็นที่รักและบ้านเกิด เมืองนอนของตน มาติดตามชมกันได้ในซีรี่ย์เกาหลี “River Where the Moon Rises ลำนำจันทร์ฉาย”
    Credit: franky

    General
    Unique ID : 243333589052717787098049891475075577190 (0xB71058354AF9CEF12399362C085B3566)
    Complete name : F:River Where the Moon Rises ลำนำจันทร์ฉายRiver.Where.the.Moon.Rises.2021.S01E0 9.1080p.H264.AAC.WEB-DL.mkv
    Format : Matroska
    Format version : Version 4
    File size : 2.39 GiB
    Duration : 1 h 3 min
    Overall bit rate : 5 401 kb/s
    Encoded date : UTC 2021-11-16 16:26:42
    Writing application : mkvmerge v19.0.0 ('Brave Captain') 64-bit
    Writing library : libebml v1.3.5 + libmatroska v1.4.8

    Video
    ID : 1
    Format : AVC
    Format/Info : Advanced Video Codec
    Format profile : [email protected]
    Format settings : CABAC / 3 Ref Frames
    Format settings, CABAC : Yes
    Format settings, Reference fra : 3 frames
    Format settings, GOP : M=1, N=60
    Codec ID : V_MPEG4/ISO/AVC
    Duration : 1 h 3 min
    Bit rate mode : Constant
    Bit rate : 5 000 kb/s
    Width : 1 920 pixels
    Height : 1 080 pixels
    Display aspect ratio : 16:9
    Frame rate mode : Constant
    Frame rate : 29.970 (30000/1001) FPS
    Color space : YUV
    Chroma subsampling : 4:2:0
    Bit depth : 8 bits
    Scan type : Progressive
    Bits/(Pixel*Frame) : 0.080
    Stream size : 2.18 GiB (92%)
    Default : Yes
    Forced : No

    Audio #1
    ID : 2
    Format : AC-3
    Format/Info : Audio Coding 3
    Commercial name : Dolby Digital
    Codec ID : A_AC3
    Duration : 1 h 3 min
    Bit rate mode : Constant
    Bit rate : 192 kb/s
    Channel(s) : 2 channels
    Channel layout : L R
    Sampling rate : 48.0 kHz
    Frame rate : 31.250 FPS (1536 SPF)
    Compression mode : Lossy
    Stream size : 86.8 MiB (4%)
    Language : Thai
    Service kind : Complete Main
    Default : Yes
    Forced : No

    Audio #2
    ID : 3
    Format : AAC LC
    Format/Info : Advanced Audio Codec Low Complexity
    Codec ID : A_AAC-2
    Duration : 1 h 3 min
    Bit rate : 256 kb/s
    Channel(s) : 2 channels
    Channel layout : L R
    Sampling rate : 48.0 kHz
    Frame rate : 46.875 FPS (1024 SPF)
    Compression mode : Lossy
    Stream size : 116 MiB (5%)
    Language : Korean
    Default : No
    Forced : No

    Text #1
    ID : 4
    Format : UTF-8
    Codec ID : S_TEXT/UTF8
    Codec ID/Info : UTF-8 Plain Text
    Duration : 1 h 3 min
    Bit rate : 124 b/s
    Count of elements : 789
    Stream size : 57.7 KiB (0%)
    Language : Thai
    Default : Yes
    Forced : No

    Text #2
    ID : 5
    Format : PGS
    Muxing mode : zlib
    Codec ID : S_HDMV/PGS
    Codec ID/Info : Picture based subtitle format used on BDs/HD-DVDs
    Duration : 1 h 3 min
    Bit rate : 18.9 kb/s
    Count of elements : 1577
    Stream size : 8.55 MiB (0%)
    Language : Thai
    Default : No
    Forced : No



    River.Where.the.Moon.Rises.2021.S01E20.END.1080p.H 264.AAC.WEB-DL.mkv
    http://www.filecondo.com/dl.php?f=v8c34f1MNLTz
    River.Where.the.Moon.Rises.2021.S01E19.1080p.H264. AAC.WEB-DL.mkv
    http://www.filecondo.com/dl.php?f=j6d46f1MNLSI
    River.Where.the.Moon.Rises.2021.S01E18.1080p.H264. AAC.WEB-DL.mkv
    http://www.filecondo.com/dl.php?f=Nc3a9e1MNLRM
    River.Where.the.Moon.Rises.2021.S01E17.1080p.H264. AAC.WEB-DL.mkv
    http://www.filecondo.com/dl.php?f=e6d7661MNLQO
    River.Where.the.Moon.Rises.2021.S01E16.1080p.H264. AAC.WEB-DL.mkv
    http://www.filecondo.com/dl.php?f=O565db1MNLPN
    River.Where.the.Moon.Rises.2021.S01E15.1080p.H264. AAC.WEB-DL.mkv
    http://www.filecondo.com/dl.php?f=Yf43be1MNLMJ
    River.Where.the.Moon.Rises.2021.S01E14.1080p.H264. AAC.WEB-DL.mkv
    http://www.filecondo.com/dl.php?f=f100b21MNLLM
    River.Where.the.Moon.Rises.2021.S01E13.1080p.H264. AAC.WEB-DL.mkv
    http://www.filecondo.com/dl.php?f=Ya884a1MNLKN
    River.Where.the.Moon.Rises.2021.S01E12.1080p.H264. AAC.WEB-DL.mkv
    http://www.filecondo.com/dl.php?f=ne5bd61MNLK1
    River.Where.the.Moon.Rises.2021.S01E11.1080p.H264. AAC.WEB-DL.mkv
    http://www.filecondo.com/dl.php?f=X4677e1MNLJ3
    River.Where.the.Moon.Rises.2021.S01E10.1080p.H264. AAC.WEB-DL.mkv
    http://www.filecondo.com/dl.php?f=rf97ce1MNLId
    River.Where.the.Moon.Rises.2021.S01E09.1080p.H264. AAC.WEB-DL.mkv
    http://www.filecondo.com/dl.php?f=7d1e691MNLGZ
    River.Where.the.Moon.Rises.2021.S01E08.1080p.H264. AAC.WEB-DL.mkv
    http://www.filecondo.com/dl.php?f=0066f01MNLG2
    River.Where.the.Moon.Rises.2021.S01E07.1080p.H264. AAC.WEB-DL.mkv
    http://www.filecondo.com/dl.php?f=Oe08f91MNLF6
    River.Where.the.Moon.Rises.2021.S01E06.1080p.H264. AAC.WEB-DL.mkv
    http://www.filecondo.com/dl.php?f=u555501MNLE8
    River.Where.the.Moon.Rises.2021.S01E05.1080p.H264. AAC.WEB-DL.mkv
    http://www.filecondo.com/dl.php?f=A6135d1MNLD0
    River.Where.the.Moon.Rises.2021.S01E04.1080p.H264. AAC.WEB-DL.mkv
    http://www.filecondo.com/dl.php?f=Wde8d01MNLCe
    River.Where.the.Moon.Rises.2021.S01E03.1080p.H264. AAC.WEB-DL.mkv
    http://www.filecondo.com/dl.php?f=d427251MNLAX
    River.Where.the.Moon.Rises.2021.S01E02.1080p.H264. AAC.WEB-DL.mkv
    http://www.filecondo.com/dl.php?f=I0f9ea1MNLyC
    River.Where.the.Moon.Rises.2021.S01E01.1080p.H264. AAC.WEB-DL.mkv
    http://www.filecondo.com/dl.php?f=W7ab2b1MNLvH

  2. The Following User Says Thank You to Duckload.us For This Useful Post:

    whiteherbie (02-13-2022)

  3. #2
    Member
    สมัครเมื่อ
    Jun 2018
    โพสต์
    78
    Thanks
    0
    Thanked 0 Times in 0 Posts
    ขอบคุณมากๆครับ

  4. #3
    Senior Member
    สมัครเมื่อ
    Aug 2012
    โพสต์
    453
    Thanks
    0
    Thanked 0 Times in 0 Posts
    ขอบคุณมากครับ

  5. #4
    Senior Member
    สมัครเมื่อ
    Dec 2011
    โพสต์
    2,773
    Thanks
    326
    Thanked 0 Times in 0 Posts
    Thank you ka

+ ตอบกลับกระทู้

ข้อมูลกระทู้

Users Browsing this Thread

ในขณะนี้มี 1 ท่านดูกระทู้อยู่. (0 สมาชิกและ 1 ผู้เยี่ยมชม)

     

กฎการโพสต์ข้อความ

  • ท่าน ไม่สามารถ ตั้งกระทู้ใหม่ได้
  • ท่าน ไม่สามารถ ตอบกระทู้ได้
  • ท่าน ไม่สามารถ แนบไฟล์ได้
  • ท่าน ไม่สามารถ แก้ไขข้อความโพสต์ได้
  • BB code สถานะ เปิด
  • Smilies สถานะ เปิด
  • [IMG] สถานะ เปิด
  • HTML สถานะ ปิด