+ ตอบกลับกระทู้
สรุปผลการค้นหา 1 ถึง 1 จากทั้งหมด 1
  1. #1
    Administrators รูปส่วนตัว Duckload.us
    สมัครเมื่อ
    Dec 2010
    โพสต์
    133,723
    Thanks
    7
    Thanked 137,859 Times in 60,869 Posts

    Thumbs up [ฝรั่ง]-[HBO Max] King Richard (2021)-WEB-DL.EAC-3.Atmos.1080p. [Modified]-[พากย์อังกฤษ Atmos 5.1 บรรยายไทย (แปล)-อังกฤษ]




    จากเรื่องจริงที่สร้างแรงบันดาลใจให้ทั้งโลก Warner Bros. Pictures ภูมิใจนำเสนอ “King Richard - คิง ริชาร์ด” กับเรื่องราวการเดินทางของ ริชาร์ด วิลเลียมส์ พ่อที่อยู่เบื้องหลังความสำเร็จของสองนักกีฬา เจ้าของพรสวรรค์แสนวิเศษผู้พลิกหน้าประวัติศาสตร์เกม เทนนิสไปตลอดกาล นำแสดงโดย ผู้เข้าชิงรางวัลออสการ์สองสมัย วิล สมิธ (“Ali,” “The Pursuit of Happyness,” “Bad Boys for Life”) รับบทเป็น ริชาร์ด ภายใต้การกำกับภาพยนตร์ของ เรนัลโด้ มาร์คัส กรีน (“Monsters and Men”). ด้วยแรงขับเคลื่อนของอนาคตอันแสนสดใสและวิธีการที่ฉี กฏเกณฑ์ของพวกเขา ริชาร์ต วางแผนว่าเขาจะต้องพา วีนัส และเซเรน่า วิลเลียมส์ เดินทางจากถนนคอมป์ตัน แคลิฟอร์เลีย ไปยังเวทีกีฬาระดับโลกในฐานะนักกีฬาในตำนานให้จงได้ ภาพยนตร์ชิ้นนี้จะสร้างแรงบันดาลใจมหาศาล และแสดงให้เห็นถึงพลังของครอบครัว ความเพียรพยายาม และความเชื่อมั่นที่ไม่เคยสั่นคลอนเพื่อคว้าในสิ่งที ่เป็นไปไม่ได้ อันเป็นความสำเร็จที่ก้องดังไปทั่วทั้งโลก


    Format : Matroska
    Format version : Version 4
    File size : 4.87 GiB
    Duration : 2 h 24 min
    Overall bit rate : 4 819 kb/s
    Encoded date : UTC 2021-11-29 12:50:23
    Writing application : mkvmerge v55.0.0 ('Waiting For Space') 64-bit
    Writing library : libebml v1.4.2 + libmatroska v1.6.4

    Video
    ID : 1
    Format : AVC
    Format/Info : Advanced Video Codec
    Format profile : [email protected]
    Format settings : CABAC / 3 Ref Frames
    Format settings, CABAC : Yes
    Format settings, Reference : 3 frames
    Codec ID : V_MPEG4/ISO/AVC
    Duration : 2 h 24 min
    Bit rate : 4 017 kb/s
    Width : 1 920 pixels
    Height : 804 pixels
    Display aspect ratio : 2.40:1
    Frame rate mode : Constant
    Frame rate : 23.976 (24000/1001) FPS
    Color space : YUV
    Chroma subsampling : 4:2:0
    Bit depth : 8 bits
    Scan type : Progressive
    Bits/(Pixel*Frame) : 0.109
    Stream size : 4.06 GiB (83%)
    Language : English
    Default : Yes
    Forced : No
    Color range : Limited
    Color primaries : BT.709
    Transfer characteristics : BT.709
    Matrix coefficients : BT.709

    Audio
    ID : 2
    Format : E-AC-3 JOC
    Format/Info : Enhanced AC-3 with Joint Object Coding
    Commercial name : Dolby Digital Plus with Dolby Atmos
    Codec ID : A_EAC3
    Duration : 2 h 24 min
    Bit rate mode : Constant
    Bit rate : 768 kb/s
    Channel(s) : 6 channels
    Channel layout : L R C LFE Ls Rs
    Sampling rate : 48.0 kHz
    Frame rate : 31.250 FPS (1536 SPF)
    Compression mode : Lossy
    Stream size : 795 MiB (16%)
    Title : E-AC3 Atmos English
    Language : English
    Service kind : Complete Main
    Default : Yes
    Forced : No
    Complexity index : 16
    Number of dynamic objects : 15
    Bed channel count : 1 channel
    Bed channel configuration : LFE

    Text #1
    ID : 3
    Format : VobSub
    Muxing mode : zlib
    Codec ID : S_VOBSUB
    Codec ID/Info : Picture based subtitle format used on DVDs
    Duration : 2 h 18 min
    Bit rate : 17.0 kb/s
    Count of elements : 2412
    Stream size : 16.9 MiB (0%)
    Title : Sub Thai 1080p
    Language : Thai
    Default : No
    Forced : No

    Text #2
    ID : 4
    Format : UTF-8
    Codec ID : S_TEXT/UTF8
    Codec ID/Info : UTF-8 Plain Text
    Duration : 2 h 18 min
    Bit rate : 175 b/s
    Count of elements : 2412
    Stream size : 178 KiB (0%)
    Title : Sub Thai SRT
    Language : Thai
    Default : No
    Forced : No

    Text #3
    ID : 5
    Format : PGS
    Muxing mode : zlib
    Codec ID : S_HDMV/PGS
    Codec ID/Info : Picture based subtitle format used on BDs/HD-DVDs
    Duration : 2 h 18 min
    Bit rate : 50.9 kb/s
    Count of elements : 4824
    Stream size : 50.6 MiB (1%)
    Title : Sub Thai PGS
    Language : Thai
    Default : Yes
    Forced : No

    Text #4
    ID : 6
    Format : UTF-8
    Codec ID : S_TEXT/UTF8
    Codec ID/Info : UTF-8 Plain Text
    Duration : 2 h 18 min
    Bit rate : 83 b/s
    Count of elements : 2714
    Stream size : 85.1 KiB (0%)
    Title : Sub English SRT
    Language : English
    Default : No
    Forced : No







    บรรยายไทย - อนันต์ โพธิสูง
    Download:filecondo
    http://www.filecondo.com/dl.php?f=gebca91MRGHL
    Download:cornfile
    https://www.cornfile.com/bjs5dgmevjk1

  2. The Following User Says Thank You to Duckload.us For This Useful Post:

    noi54 (12-04-2021)

+ ตอบกลับกระทู้

ข้อมูลกระทู้

Users Browsing this Thread

ในขณะนี้มี 1 ท่านดูกระทู้อยู่. (0 สมาชิกและ 1 ผู้เยี่ยมชม)

     

กฎการโพสต์ข้อความ

  • ท่าน ไม่สามารถ ตั้งกระทู้ใหม่ได้
  • ท่าน ไม่สามารถ ตอบกระทู้ได้
  • ท่าน ไม่สามารถ แนบไฟล์ได้
  • ท่าน ไม่สามารถ แก้ไขข้อความโพสต์ได้
  • BB code สถานะ เปิด
  • Smilies สถานะ เปิด
  • [IMG] สถานะ เปิด
  • HTML สถานะ ปิด