+ ตอบกลับกระทู้
สรุปผลการค้นหา 1 ถึง 9 จากทั้งหมด 9
  1. #1
    Administrators รูปส่วนตัว Duckload.us
    สมัครเมื่อ
    Dec 2010
    โพสต์
    133,606
    Thanks
    7
    Thanked 137,706 Times in 60,816 Posts

    Thumbs up [ฝรั่ง]-Dune.ดูน.2021.1080p.BluRay.H264.AAC-THA[พากย์ไทยมาสเตอร์+อังกฤษ 5.1 - เสียงไทยซับไทยมาสเตอร์]-Blu-ray.H.264.1080p. [Modified]-[พากย์ไทย บรรยายไทย]





    General
    Unique ID : 329019507347769679013453860515364068415 (0xF786DA266D7F8357B8916346BF4DDC3F)
    Complete name : Dune.2021.1080p.BluRay.H264.AAC-THA.mkv
    Format : Matroska
    Format version : Version 4
    File size : 3.18 GiB
    Duration : 2 h 35 min
    Overall bit rate : 2 930 kb/s
    Encoded date : UTC 2021-12-05 02:18:20
    Writing application : mkvmerge v61.0.0 ('So') 64-bit
    Writing library : libebml v1.4.2 + libmatroska v1.6.4

    Video
    ID : 1
    Format : AVC
    Format/Info : Advanced Video Codec
    Format profile : [email protected]
    Format settings : CABAC / 4 Ref Frames
    Format settings, CABAC : Yes
    Format settings, Reference : 4 frames
    Codec ID : V_MPEG4/ISO/AVC
    Duration : 2 h 35 min
    Bit rate : 2 500 kb/s
    Width : 1 920 pixels
    Height : 800 pixels
    Display aspect ratio : 2.40:1
    Frame rate mode : Constant
    Frame rate : 23.976 (23976/1000) FPS
    Color space : YUV
    Chroma subsampling : 4:2:0
    Bit depth : 8 bits
    Scan type : Progressive
    Bits/(Pixel*Frame) : 0.068
    Stream size : 2.71 GiB (85%)
    Writing library : x264 core 152 r2851M ba24899
    Encoding settings : cabac=1 / ref=4 / deblock=1:-1:-1 / analyse=0x3:0x113 / me=umh / subme=9 / psy=1 / psy_rd=1.00:0.15 / mixed_ref=1 / me_range=24 / chroma_me=1 / trellis=2 / 8x8dct=1 / cqm=0 / deadzone=21,11 / fast_pskip=1 / chroma_qp_offset=-3 / threads=16 / lookahead_threads=4 / sliced_threads=0 / nr=0 / decimate=1 / interlaced=0 / bluray_compat=0 / constrained_intra=0 / bframes=3 / b_pyramid=2 / b_adapt=2 / b_bias=0 / direct=3 / weightb=1 / open_gop=0 / weightp=2 / keyint=250 / keyint_min=25 / scenecut=40 / intra_refresh=0 / rc_lookahead=50 / rc=2pass / mbtree=1 / bitrate=2500 / ratetol=1.0 / qcomp=0.60 / qpmin=0 / qpmax=69 / qpstep=4 / cplxblur=20.0 / qblur=0.5 / vbv_maxrate=31250 / vbv_bufsize=31250 / nal_hrd=none / filler=0 / ip_ratio=1.40 / aq=3:1.00
    Default : Yes
    Forced : No

    Audio #1
    ID : 2
    Format : AC-3
    Format/Info : Audio Coding 3
    Commercial name : Dolby Digital
    Codec ID : A_AC3
    Duration : 2 h 35 min
    Bit rate mode : Constant
    Bit rate : 192 kb/s
    Channel(s) : 2 channels
    Channel layout : L R
    Sampling rate : 48.0 kHz
    Frame rate : 31.250 FPS (1536 SPF)
    Compression mode : Lossy
    Delay relative to video : -43 ms
    Stream size : 213 MiB (7%)
    Title : Thai Master
    Language : Thai
    Service kind : Complete Main
    Default : Yes
    Forced : No

    Audio #2
    ID : 3
    Format : AAC LC
    Format/Info : Advanced Audio Codec Low Complexity
    Codec ID : A_AAC-2
    Duration : 2 h 35 min
    Bit rate : 224 kb/s
    Channel(s) : 6 channels
    Channel layout : C L R Ls Rs LFE
    Sampling rate : 48.0 kHz
    Frame rate : 46.875 FPS (1024 SPF)
    Compression mode : Lossy
    Delay relative to video : -43 ms
    Stream size : 249 MiB (8%)
    Title : English 5.1
    Language : English
    Default : No
    Forced : No

    Text #1
    ID : 4
    Format : PGS
    Muxing mode : zlib
    Codec ID : S_HDMV/PGS
    Codec ID/Info : Picture based subtitle format used on BDs/HD-DVDs
    Duration : 2 h 35 min
    Bit rate : 24.7 kb/s
    Count of elements : 2512
    Stream size : 27.4 MiB (1%)
    Title : Thai Master PGS
    Language : Thai
    Default : Yes
    Forced : No

    Text #2
    ID : 5
    Format : UTF-8
    Codec ID : S_TEXT/UTF8
    Codec ID/Info : UTF-8 Plain Text
    Duration : 2 h 25 min
    Bit rate : 31 b/s
    Count of elements : 1300
    Stream size : 33.8 KiB (0%)
    Title : English
    Language : English
    Default : No
    Forced : No




    Download:filecondo
    http://www.filecondo.com/dl.php?f=Odd1651MTL8g
    Download:cornfile
    https://www.cornfile.com/j8pg5pyjt9a4

  2. The Following 8 Users Say Thank You to Duckload.us For This Useful Post:

    azygous (12-05-2021), bigbang06 (12-06-2021), jangska (12-19-2021), Jodz14 (12-06-2021), noi54 (12-06-2021), sawara (12-06-2021), Tellmon (12-10-2021), Wesker_TOT (12-06-2021)

  3. #2
    Senior Member
    สมัครเมื่อ
    Jul 2013
    โพสต์
    2,951
    Thanks
    0
    Thanked 0 Times in 0 Posts
    ขอบคุณครับ

  4. #3
    Member
    สมัครเมื่อ
    Jul 2013
    โพสต์
    53
    Thanks
    0
    Thanked 0 Times in 0 Posts
    filecondo

    ทำไมดาวโหลดไม่ได้ครับ


    ไฟล์ยังไม่พร้อมสำหรับการดาวโหลด ระบบกำลังประมวลผลไฟล์

  5. #4
    Junior Member
    สมัครเมื่อ
    Mar 2021
    โพสต์
    11
    Thanks
    0
    Thanked 0 Times in 0 Posts
    กำ โหลดไม่ได้หรอครับ กำลังจะโหลดเลย

  6. #5
    Member
    สมัครเมื่อ
    Jul 2013
    โพสต์
    46
    Thanks
    0
    Thanked 0 Times in 0 Posts
    กำโหลดไม่ได้พึ่งเติมเงินไป ถถถ ฮี่ๆ อิๆ กำ ^^"

  7. #6
    Member
    สมัครเมื่อ
    Jul 2013
    โพสต์
    46
    Thanks
    0
    Thanked 0 Times in 0 Posts
    อ้างอิง โพสต์ต้นฉบับโดยคุณ ayumudumaza ดูโพสต์
    กำโหลดไม่ได้พึ่งเติมเงินไป ถถถ ฮี่ๆ อิๆ กำ ^^"
    โหลดได้แ้ลวนะครับทุกท่านฯ ฮี่ๆ ^^"

  8. #7
    Senior Member
    สมัครเมื่อ
    Dec 2013
    โพสต์
    3,405
    Thanks
    5,310
    Thanked 0 Times in 0 Posts
    ขอบคุณครับ...

  9. #8
    Senior Member
    สมัครเมื่อ
    Jul 2012
    โพสต์
    7,821
    Thanks
    0
    Thanked 0 Times in 0 Posts
    ขอบคุณมากจ้า

  10. #9
    Senior Member
    สมัครเมื่อ
    Dec 2013
    โพสต์
    540
    Thanks
    485
    Thanked 0 Times in 0 Posts
    ขอบคุณครับบ

+ ตอบกลับกระทู้

ข้อมูลกระทู้

Users Browsing this Thread

ในขณะนี้มี 1 ท่านดูกระทู้อยู่. (0 สมาชิกและ 1 ผู้เยี่ยมชม)

     

กฎการโพสต์ข้อความ

  • ท่าน ไม่สามารถ ตั้งกระทู้ใหม่ได้
  • ท่าน ไม่สามารถ ตอบกระทู้ได้
  • ท่าน ไม่สามารถ แนบไฟล์ได้
  • ท่าน ไม่สามารถ แก้ไขข้อความโพสต์ได้
  • BB code สถานะ เปิด
  • Smilies สถานะ เปิด
  • [IMG] สถานะ เปิด
  • HTML สถานะ ปิด