+ ตอบกลับกระทู้
สรุปผลการค้นหา 1 ถึง 1 จากทั้งหมด 1
  1. #1
    Administrators รูปส่วนตัว Duckload.us
    สมัครเมื่อ
    Dec 2010
    โพสต์
    135,849
    Thanks
    7
    Thanked 140,644 Times in 61,731 Posts

    Lightbulb [จีน]-Twisted Fate of Love (2020) หวนชะตาฝ่าลิขิตรัก Ep.01-39 จบ [1080p][พากย์ไทย-ซับไทย]-WEB-DL.H.264.1080p. [Hi-def rip from Master]-[พากย์ไทย บรรยายไทย]




    แม่ทัพหญิงเหวินซิน (ซุนอี๋) ปรารถนาอยากเห็นแผ่นดินที่สงบสุข นางจึงย้อนเวลากลับไป 8 ปีก่อนเพื่อทำภารกิจสังหารขุนนางชั่วลู่หย่วนถง และหยุดยั้งสงคราม ถึงจะข้ามเวลาได้สำเร็จแต่นางกลับไปโผล่ในเรือนของรอ งเจ้ากรมเฝิงซี (จินฮั่น) และได้ช่วยชีวิตเขาจากการถูกลอบสังหาร เฝิงซีตั้งชื่อใหม่ให้เหวินซินที่ในขณะนั้นไร้ความทร งจำว่า ตงเยว่ แต่หลังจากนั้นไม่นานตงเยว่ก็จำได้ว่าเฝิงซีคือคนที่ สบคบกับลู่หย่วนถงก่อกบฏทำให้เกิดสงคราม เพื่อสานต่อความตั้งใจ ตงเยว่จึงปลอมตัวเป็นชายเข้าไปในราชสำนัก เมื่อได้พบกันอีกครั้งเฝิงซีผู้แสนเจ้าเล่ห์จึงคิดใช ้นางเป็นเครื่องมือ จนความใกล้ชิดกลายเป็นความรักความผูกพันที่ยาวนานถึง สามภพสามชาติ













    Video
    ID : 1
    Format : AVC
    Format/Info : Advanced Video Codec
    Format profile : [email protected]
    Format settings : CABAC / 4 Ref Frames
    Format settings, CABAC : Yes
    Format settings, Reference : 4 frames
    Codec ID : V_MPEG4/ISO/AVC
    Duration : 43 min 11 s
    Bit rate : 4 000 kb/s
    Width : 1 920 pixels
    Height : 1 080 pixels
    Display aspect ratio : 16:9
    Frame rate mode : Constant
    Frame rate : 29.970 (30000/1001) FPS
    Color space : YUV
    Chroma subsampling : 4:2:0
    Bit depth : 8 bits
    Scan type : Progressive
    Bits/(Pixel*Frame) : 0.064
    Stream size : 1.22 GiB (94%)
    Writing library : x264 core 148
    Encoding settings : cabac=1 / ref=3 / deblock=1:0:0 / analyse=0x3:0x113 / me=hex / subme=7 / psy=1 / psy_rd=1.00:0.00 / mixed_ref=1 / me_range=16 / chroma_me=1 / trellis=1 / 8x8dct=1 / cqm=0 / deadzone=21,11 / fast_pskip=1 / chroma_qp_offset=-2 / threads=18 / lookahead_threads=3 / sliced_threads=0 / nr=0 / decimate=1 / interlaced=0 / bluray_compat=0 / constrained_intra=0 / bframes=3 / b_pyramid=2 / b_adapt=1 / b_bias=0 / direct=1 / weightb=1 / open_gop=0 / weightp=2 / keyint=240 / keyint_min=121 / scenecut=40 / intra_refresh=0 / rc_lookahead=40 / rc=abr / mbtree=1 / bitrate=4000 / ratetol=1.0 / qcomp=0.60 / qpmin=0 / qpmax=69 / qpstep=4 / ip_ratio=1.40 / aq=1:1.00
    Language : Chinese
    Default : Yes
    Forced : No

    Audio #1
    ID : 2
    Format : AAC LC
    Format/Info : Advanced Audio Codec Low Complexity
    Codec ID : A_AAC-2
    Duration : 43 min 11 s
    Bit rate : 128 kb/s
    Channel(s) : 2 channels
    Channel layout : L R
    Sampling rate : 48.0 kHz
    Frame rate : 46.875 FPS (1024 SPF)
    Compression mode : Lossy
    Stream size : 39.5 MiB (3%)
    Language : Thai
    Default : Yes
    Forced : No

    Audio #2
    ID : 3
    Format : AAC LC
    Format/Info : Advanced Audio Codec Low Complexity
    Codec ID : A_AAC-2
    Duration : 43 min 11 s
    Bit rate : 128 kb/s
    Channel(s) : 2 channels
    Channel layout : L R
    Sampling rate : 48.0 kHz
    Frame rate : 46.875 FPS (1024 SPF)
    Compression mode : Lossy
    Stream size : 39.5 MiB (3%)
    Language : Chinese
    Default : No
    Forced : No

    Text #1
    ID : 4
    Format : ASS
    Codec ID : S_TEXT/ASS
    Codec ID/Info : Advanced Sub Station Alpha
    Duration : 40 min 28 s
    Bit rate : 169 b/s
    Count of elements : 610
    Compression mode : Lossless
    Stream size : 50.3 KiB (0%)
    Title : Thai Spark (TV)
    Language : Thai
    Default : Yes
    Forced : No

    Text #2
    ID : 5
    Format : ASS
    Codec ID : S_TEXT/ASS
    Codec ID/Info : Advanced Sub Station Alpha
    Duration : 40 min 28 s
    Bit rate : 169 b/s
    Count of elements : 610
    Compression mode : Lossless
    Stream size : 50.3 KiB (0%)
    Title : Thai Spark (Pc)
    Language : Thai
    Default : No
    Forced : No

    Text #3
    ID : 6
    Format : UTF-8
    Codec ID : S_TEXT/UTF8
    Codec ID/Info : UTF-8 Plain Text
    Duration : 40 min 28 s
    Bit rate : 125 b/s
    Count of elements : 610
    Stream size : 37.3 KiB (0%)
    Title : Thai Spark (Srt)
    Language : Thai
    Default : No
    Forced : No



    Twisted.Fate.of.Love.2020.S01E39.1080p.WEB-DL.H.264-(Spark751).mkv
    http://www.filecondo.com/dl.php?f=w3f0d41MV6XS

    Twisted.Fate.of.Love.2020.S01E38.1080p.WEB-DL.H.264-(Spark751).mkv
    http://www.filecondo.com/dl.php?f=01c7111MV6WU

    Twisted.Fate.of.Love.2020.S01E37.1080p.WEB-DL.H.264-(Spark751).mkv
    http://www.filecondo.com/dl.php?f=a5b45b1MV6VZ

    Twisted.Fate.of.Love.2020.S01E36.1080p.WEB-DL.H.264-(Spark751).mkv
    http://www.filecondo.com/dl.php?f=K0d8b91MV6UY

    Twisted.Fate.of.Love.2020.S01E35.1080p.WEB-DL.H.264-(Spark751).mkv
    http://www.filecondo.com/dl.php?f=P5af5e1MV6U0

    Twisted.Fate.of.Love.2020.S01E34.1080p.WEB-DL.H.264-(Spark751).mkv
    http://www.filecondo.com/dl.php?f=3f099c1MV6T4

    Twisted.Fate.of.Love.2020.S01E33.1080p.WEB-DL.H.264-(Spark751).mkv
    http://www.filecondo.com/dl.php?f=2518f61MV6S4

    Twisted.Fate.of.Love.2020.S01E32.1080p.WEB-DL.H.264-(Spark751).mkv
    http://www.filecondo.com/dl.php?f=z84c461MV6R7

    Twisted.Fate.of.Love.2020.S01E31.1080p.WEB-DL.H.264-(Spark751).mkv
    http://www.filecondo.com/dl.php?f=k203ab1MV6Q9

    Twisted.Fate.of.Love.2020.S01E30.1080p.WEB-DL.H.264-(Spark751).mkv
    http://www.filecondo.com/dl.php?f=ub3d521MV6Pb

    Twisted.Fate.of.Love.2020.S01E29.1080p.WEB-DL.H.264-(Spark751).mkv
    http://www.filecondo.com/dl.php?f=J364501MV6Od

    Twisted.Fate.of.Love.2020.S01E28.1080p.WEB-DL.H.264-(Spark751).mkv
    http://www.filecondo.com/dl.php?f=6ebe8d1MV6Ng

    Twisted.Fate.of.Love.2020.S01E27.1080p.WEB-DL.H.264-(Spark751).mkv
    http://www.filecondo.com/dl.php?f=P36fbd1MV6Mf

    Twisted.Fate.of.Love.2020.S01E26v2.1080p.WEB-DL.H.264-(Spark751).mkv
    http://www.filecondo.com/dl.php?f=y2c5cb1MV6Li

    Twisted.Fate.of.Love.2020.S01E25.1080p.WEB-DL.H.264-(Spark751).mkv
    http://www.filecondo.com/dl.php?f=J7ab9a1MV6Kl

    Twisted.Fate.of.Love.2020.S01E24.1080p.WEB-DL.H.264-(Spark751).mkv
    http://www.filecondo.com/dl.php?f=M8b77b1MV6Jm

    Twisted.Fate.of.Love.2020.S01E23.1080p.WEB-DL.H.264-(Spark751).mkv
    http://www.filecondo.com/dl.php?f=a87abf1MV6In

    Twisted.Fate.of.Love.2020.S01E22.1080p.WEB-DL.H.264-(Spark751).mkv
    http://www.filecondo.com/dl.php?f=e683721MV6Hp

    Twisted.Fate.of.Love.2020.S01E21.1080p.WEB-DL.H.264-(Spark751).mkv
    http://www.filecondo.com/dl.php?f=46a2061MV6Gs

    Twisted.Fate.of.Love.2020.S01E20.1080p.WEB-DL.H.264-(Spark751).mkv
    http://www.filecondo.com/dl.php?f=6b9a891MV6Ft

    Twisted.Fate.of.Love.2020.S01E19.1080p.WEB-DL.H.264-(Spark751).mkv
    http://www.filecondo.com/dl.php?f=h47d441MV6Ew

    Twisted.Fate.of.Love.2020.S01E18.1080p.WEB-DL.H.264-(Spark751).mkv
    http://www.filecondo.com/dl.php?f=I833fb1MV6Dx

    Twisted.Fate.of.Love.2020.S01E17.1080p.WEB-DL.H.264-(Spark751).mkv
    http://www.filecondo.com/dl.php?f=Nf16ea1MV6Cz

    Twisted.Fate.of.Love.2020.S01E16.1080p.WEB-DL.H.264-(Spark751).mkv
    http://www.filecondo.com/dl.php?f=A60af71MV6BB

    Twisted.Fate.of.Love.2020.S01E15.1080p.WEB-DL.H.264-(Spark751).mkv
    http://www.filecondo.com/dl.php?f=ccdc981MV6AE

    Twisted.Fate.of.Love.2020.S01E14.1080p.WEB-DL.H.264-(Spark751).mkv
    http://www.filecondo.com/dl.php?f=0a2fb01MV6zF

    Twisted.Fate.of.Love.2020.S01E13.1080p.WEB-DL.H.264-(Spark751).mkv
    http://www.filecondo.com/dl.php?f=k8c5381MV6yH

    Twisted.Fate.of.Love.2020.S01E12.1080p.WEB-DL.H.264-(Spark751).mkv
    http://www.filecondo.com/dl.php?f=Y4c13f1MV6xJ

    Twisted.Fate.of.Love.2020.S01E11.1080p.WEB-DL.H.264-(Spark751).mkv
    http://www.filecondo.com/dl.php?f=Se288b1MV6wL

    Twisted.Fate.of.Love.2020.S01E10.1080p.WEB-DL.H.264-(Spark751).mkv
    http://www.filecondo.com/dl.php?f=G9e4e91MV6vN

    Twisted.Fate.of.Love.2020.S01E09.1080p.WEB-DL.H.264-(Spark751).mkv
    http://www.filecondo.com/dl.php?f=s7993e1MV6uO

    Twisted.Fate.of.Love.2020.S01E08.1080p.WEB-DL.H.264-(Spark751).mkv
    http://www.filecondo.com/dl.php?f=J4c0e31MV6tQ

    Twisted.Fate.of.Love.2020.S01E07.1080p.WEB-DL.H.264-(Spark751).mkv
    http://www.filecondo.com/dl.php?f=Z85ff51MV6sT

    Twisted.Fate.of.Love.2020.S01E06.1080p.WEB-DL.H.264-(Spark751).mkv
    http://www.filecondo.com/dl.php?f=qaa8cf1MV6rW

    Twisted.Fate.of.Love.2020.S01E05.1080p.WEB-DL.H.264-(Spark751).mkv
    http://www.filecondo.com/dl.php?f=mde6551MV6qY

    Twisted.Fate.of.Love.2020.S01E04.1080p.WEB-DL.H.264-(Spark751).mkv
    http://www.filecondo.com/dl.php?f=867c591MV6q0

    Twisted.Fate.of.Love.2020.S01E03.1080p.WEB-DL.H.264-(Spark751).mkv
    http://www.filecondo.com/dl.php?f=ef36d91MV6p2

    Twisted.Fate.of.Love.2020.S01E02.1080p.WEB-DL.H.264-(Spark751).mkv
    http://www.filecondo.com/dl.php?f=Qc045a1MV6o4

    Twisted.Fate.of.Love.2020.S01E01.1080p.WEB-DL.H.264-(Spark751).mkv
    http://www.filecondo.com/dl.php?f=49d7dd1MV6n6

  2. The Following User Says Thank You to Duckload.us For This Useful Post:

    alyssachia08 (12-24-2021)

+ ตอบกลับกระทู้

ข้อมูลกระทู้

Users Browsing this Thread

ในขณะนี้มี 1 ท่านดูกระทู้อยู่. (0 สมาชิกและ 1 ผู้เยี่ยมชม)

     

กฎการโพสต์ข้อความ

  • ท่าน ไม่สามารถ ตั้งกระทู้ใหม่ได้
  • ท่าน ไม่สามารถ ตอบกระทู้ได้
  • ท่าน ไม่สามารถ แนบไฟล์ได้
  • ท่าน ไม่สามารถ แก้ไขข้อความโพสต์ได้
  • BB code สถานะ เปิด
  • Smilies สถานะ เปิด
  • [IMG] สถานะ เปิด
  • HTML สถานะ ปิด