+ ตอบกลับกระทู้
สรุปผลการค้นหา 1 ถึง 1 จากทั้งหมด 1
  1. #1
    Administrators รูปส่วนตัว Duckload.us
    สมัครเมื่อ
    Dec 2010
    โพสต์
    133,706
    Thanks
    7
    Thanked 137,814 Times in 60,854 Posts

    Lightbulb [จีน]-With You (2020) เพราะเรามีกัน Ep.01-20 จบ [1080p][พากย์ไทย-ซับไทย]-WEB-DL.H.264.1080p. [Hi-def rip from Master]-[พากย์ไทย บรรยายไทย]




    10 เรื่องราวของคนธรรมดาที่อุทิศตัวต่อสู้กับเชื้อไวรัส โคโรนาสายพันธุ์ใหม่ 2019 (Covid-19) ณ ศูนย์กลางของเมืองอู่ฮั่น ประเทศจีน ท่ามกลางการระบาดหนักของเชื้อไวรัสที่พรากชีวิตผู้คน ไปมากมาย ยังมีคนธรรมดาที่กล้ายืนหยัดเผชิญหน้ากับสนามรบที่มอ งไม่เห็น ทั้งหนุ่มสาวที่มาทำหน้าที่อาสาสมัคร ทีมหมอผู้อยู่ด่านหน้าของการแพร่ระบาด ชาวบ้านที่ช่วยกันผลิตหน้ากาอนามัย ท่ามกลางวิกฤตยังมีเรื่องราวอันอบอุ่นกลายเป็นกำลังใ จส่งต่อให้ผ่านเหตุการณ์เลวร้ายนี้ไปด้วยกัน

    Video
    ID : 1
    Format : AVC
    Format/Info : Advanced Video Codec
    Format profile : [email protected]
    Format settings : CABAC / 4 Ref Frames
    Format settings, CABAC : Yes
    Format settings, Reference : 4 frames
    Codec ID : V_MPEG4/ISO/AVC
    Duration : 40 min 41 s
    Bit rate : 4 000 kb/s
    Width : 1 920 pixels
    Height : 1 080 pixels
    Display aspect ratio : 16:9
    Frame rate mode : Constant
    Frame rate : 25.000 FPS
    Color space : YUV
    Chroma subsampling : 4:2:0
    Bit depth : 8 bits
    Scan type : Progressive
    Bits/(Pixel*Frame) : 0.077
    Stream size : 1.14 GiB (94%)
    Title : Monomax
    Writing library : x264 core 148
    Encoding settings : cabac=1 / ref=3 / deblock=1:0:0 / analyse=0x3:0x113 / me=hex / subme=7 / psy=1 / psy_rd=1.00:0.00 / mixed_ref=1 / me_range=16 / chroma_me=1 / trellis=1 / 8x8dct=1 / cqm=0 / deadzone=21,11 / fast_pskip=1 / chroma_qp_offset=-2 / threads=12 / lookahead_threads=2 / sliced_threads=0 / nr=0 / decimate=1 / interlaced=0 / bluray_compat=0 / constrained_intra=0 / bframes=3 / b_pyramid=2 / b_adapt=1 / b_bias=0 / direct=1 / weightb=1 / open_gop=0 / weightp=2 / keyint=240 / keyint_min=121 / scenecut=40 / intra_refresh=0 / rc_lookahead=40 / rc=abr / mbtree=1 / bitrate=4000 / ratetol=1.0 / qcomp=0.60 / qpmin=0 / qpmax=69 / qpstep=4 / ip_ratio=1.40 / aq=1:1.00
    Language : Thai
    Default : Yes
    Forced : No

    Audio #1
    ID : 2
    Format : AAC LC
    Format/Info : Advanced Audio Codec Low Complexity
    Codec ID : A_AAC-2
    Duration : 40 min 41 s
    Bit rate : 128 kb/s
    Channel(s) : 2 channels
    Channel layout : L R
    Sampling rate : 48.0 kHz
    Frame rate : 46.875 FPS (1024 SPF)
    Compression mode : Lossy
    Stream size : 37.3 MiB (3%)
    Language : Thai
    Default : Yes
    Forced : No

    Audio #2
    ID : 3
    Format : AAC LC
    Format/Info : Advanced Audio Codec Low Complexity
    Codec ID : A_AAC-2
    Duration : 40 min 41 s
    Bit rate : 128 kb/s
    Channel(s) : 2 channels
    Channel layout : L R
    Sampling rate : 48.0 kHz
    Frame rate : 46.875 FPS (1024 SPF)
    Compression mode : Lossy
    Stream size : 37.3 MiB (3%)
    Language : Chinese
    Default : No
    Forced : No

    Text
    ID : 4
    Format : UTF-8
    Codec ID : S_TEXT/UTF8
    Codec ID/Info : UTF-8 Plain Text
    Duration : 39 min 58 s
    Bit rate : 154 b/s
    Count of elements : 490
    Stream size : 45.4 KiB (0%)
    Title : Thai Monomax
    Language : Thai
    Default : Yes
    Forced : No







    With.You.2020.S01E20.1080p.WEB-DL.H.264.mkv
    http://www.filecondo.com/dl.php?f=016e091N0qCA

    With.You.2020.S01E19.1080p.WEB-DL.H.264.mkv
    http://www.filecondo.com/dl.php?f=Ia81d61N0qBA

    With.You.2020.S01E18.1080p.WEB-DL.H.264v2.mkv
    http://www.filecondo.com/dl.php?f=c16efd1N15lk

    With.You.2020.S01E17.1080p.WEB-DL.H.264.mkv
    http://www.filecondo.com/dl.php?f=d35da71N0qAI

    With.You.2020.S01E16.1080p.WEB-DL.H.264.mkv
    http://www.filecondo.com/dl.php?f=Sf110a1N0qzG

    With.You.2020.S01E15.1080p.WEB-DL.H.264.mkv
    http://www.filecondo.com/dl.php?f=c42d2f1N0qz2

    With.You.2020.S01E14.1080p.WEB-DL.H.264.mkv
    http://www.filecondo.com/dl.php?f=Eb53ac1N0qxr

    With.You.2020.S01E13.1080p.WEB-DL.H.264.mkv
    http://www.filecondo.com/dl.php?f=tda4b71N0qvK

    With.You.2020.S01E12.1080p.WEB-DL.H.264.mkv
    http://www.filecondo.com/dl.php?f=X2e58d1N0quL

    With.You.2020.S01E11.1080p.WEB-DL.H.264.mkv
    http://www.filecondo.com/dl.php?f=lafeb31N0qrU

    With.You.2020.S01E10.1080p.WEB-DL.H.264.mkv
    http://www.filecondo.com/dl.php?f=f16da31N0qr8

    With.You.2020.S01E09.1080p.WEB-DL.H.264.mkv
    http://www.filecondo.com/dl.php?f=Tc5e531N0qqe

    With.You.2020.S01E08.1080p.WEB-DL.H.264.mkv
    http://www.filecondo.com/dl.php?f=z28d611N0qpJ

    With.You.2020.S01E07.1080p.WEB-DL.H.264.mkv
    http://www.filecondo.com/dl.php?f=Wb58fd1N0qoz

    With.You.2020.S01E06.1080p.WEB-DL.H.264.mkv
    http://www.filecondo.com/dl.php?f=v5d0691N0qnc

    With.You.2020.S01E05.1080p.WEB-DL.H.264v2.mkv
    http://www.filecondo.com/dl.php?f=j7f9a71N0qmq

    With.You.2020.S01E04.1080p.WEB-DL.H.264.mkv
    http://www.filecondo.com/dl.php?f=ff1ea01N0ql9

    With.You.2020.S01E03.1080p.WEB-DL.H.264.mkv
    http://www.filecondo.com/dl.php?f=l7a1901N0qkc

    With.You.2020.S01E02.1080p.WEB-DL.H.264.mkv
    http://www.filecondo.com/dl.php?f=d39f331N0qje

    With.You.2020.S01E01.1080p.WEB-DL.H.264.mkv
    http://www.filecondo.com/dl.php?f=Xb7fb81N0qif

  2. The Following User Says Thank You to Duckload.us For This Useful Post:

    alyssachia08 (01-09-2022)

+ ตอบกลับกระทู้

ข้อมูลกระทู้

Users Browsing this Thread

ในขณะนี้มี 1 ท่านดูกระทู้อยู่. (0 สมาชิกและ 1 ผู้เยี่ยมชม)

     

กฎการโพสต์ข้อความ

  • ท่าน ไม่สามารถ ตั้งกระทู้ใหม่ได้
  • ท่าน ไม่สามารถ ตอบกระทู้ได้
  • ท่าน ไม่สามารถ แนบไฟล์ได้
  • ท่าน ไม่สามารถ แก้ไขข้อความโพสต์ได้
  • BB code สถานะ เปิด
  • Smilies สถานะ เปิด
  • [IMG] สถานะ เปิด
  • HTML สถานะ ปิด