+ ตอบกลับกระทู้
สรุปผลการค้นหา 1 ถึง 10 จากทั้งหมด 10
  1. #1
    Administrators รูปส่วนตัว Duckload.us
    สมัครเมื่อ
    Dec 2010
    โพสต์
    135,849
    Thanks
    7
    Thanked 140,642 Times in 61,729 Posts

    Thumbs up [ฝรั่ง] - Star Wars : The Book of Boba Fett (2021) Season 1 : Episode 01-07 - 1080p.WEB-DL [ เสียงอังกฤษ 5.1 + พากย์ไทย 5.1 ] ● [ บรรยายไทย + อังกฤษ PGS,SRT ] จาก Disney+ Hotstar TH







    Format : Matroska
    Format version : Version 4
    File size : 1.89 GiB
    Duration : 37 min 40 s
    Overall bit rate mode : Variable
    Overall bit rate : 7 178 kb/s
    Encoded date : UTC 2021-12-29 08:45:28
    Writing application : mkvmerge v20.0.0 ('I Am The Sun') 64-bit
    Writing library : libebml v1.3.5 + libmatroska v1.4.8

    Video
    ID : 1
    Format : AVC
    Format/Info : Advanced Video Codec
    Format profile : [email protected]
    Format settings : CABAC / 4 Ref Frames
    Format settings, CABAC : Yes
    Format settings, Reference : 4 frames
    Codec ID : V_MPEG4/ISO/AVC
    Duration : 37 min 40 s
    Bit rate mode : Variable
    Bit rate : 6 205 kb/s
    Maximum bit rate : 12.7 Mb/s
    Width : 1 920 pixels
    Height : 1 080 pixels
    Display aspect ratio : 16:9
    Frame rate mode : Constant
    Frame rate : 24.000 FPS
    Color space : YUV
    Chroma subsampling : 4:2:0
    Bit depth : 8 bits
    Scan type : Progressive
    Bits/(Pixel*Frame) : 0.125
    Stream size : 1.63 GiB (86%)
    Language : English
    Default : Yes
    Forced : No
    Color range : Limited
    Color primaries : BT.709
    Transfer characteristics : BT.709
    Matrix coefficients : BT.709

    Audio #1
    ID : 2
    Format : E-AC-3 JOC
    Format/Info : Enhanced AC-3 with Joint Object Coding
    Commercial name : Dolby Digital Plus with Dolby Atmos
    Codec ID : A_EAC3
    Duration : 37 min 40 s
    Bit rate mode : Constant
    Bit rate : 768 kb/s
    Channel(s) : 6 channels
    Channel layout : L R C LFE Ls Rs
    Sampling rate : 48.0 kHz
    Frame rate : 31.250 FPS (1536 SPF)
    Compression mode : Lossy
    Stream size : 207 MiB (11%)
    Title : English 5.1
    Language : English
    Service kind : Complete Main
    Default : No
    Forced : No
    Complexity index : 16
    Number of dynamic objects : 15
    Bed channel count : 1 channel
    Bed channel configuration : LFE

    Audio #2
    ID : 3
    Format : E-AC-3
    Format/Info : Enhanced AC-3
    Commercial name : Dolby Digital Plus
    Codec ID : A_EAC3
    Duration : 37 min 40 s
    Bit rate mode : Constant
    Bit rate : 192 kb/s
    Channel(s) : 6 channels
    Channel layout : L R C LFE Ls Rs
    Sampling rate : 48.0 kHz
    Frame rate : 31.250 FPS (1536 SPF)
    Compression mode : Lossy
    Stream size : 51.7 MiB (3%)
    Title : Thai 5.1
    Language : Thai
    Service kind : Complete Main
    Default : Yes
    Forced : No

    Text #1
    ID : 4
    Format : PGS
    Codec ID : S_HDMV/PGS
    Codec ID/Info : Picture based subtitle format used on BDs/HD-DVDs
    Duration : 30 min 26 s
    Bit rate : 12.9 kb/s
    Count of elements : 292
    Stream size : 2.81 MiB (0%)
    Title : Thai PGS
    Language : Thai
    Default : No
    Forced : No

    Text #2
    ID : 5
    Format : UTF-8
    Codec ID : S_TEXT/UTF8
    Codec ID/Info : UTF-8 Plain Text
    Duration : 37 min 13 s
    Bit rate : 43 b/s
    Count of elements : 147
    Stream size : 11.9 KiB (0%)
    Title : Thai SRT
    Language : Thai
    Default : No
    Forced : No

    Text #3
    ID : 6
    Format : UTF-8
    Codec ID : S_TEXT/UTF8
    Codec ID/Info : UTF-8 Plain Text
    Duration : 33 min 30 s
    Bit rate : 29 b/s
    Count of elements : 261
    Stream size : 7.20 KiB (0%)
    Title : English (SDH)
    Language : English
    Default : No
    Forced : No






    Download:filecondo
    01 http://www.filecondo.com/dl.php?f=D6960d1N3ewa fix
    02 http://www.filecondo.com/dl.php?f=W689111N53Fu
    03 http://www.filecondo.com/dl.php?f=0227961N7RMA
    04 http://www.filecondo.com/dl.php?f=Tf39d71NiNEF
    05 http://www.filecondo.com/dl.php?f=Ocd2531NiNFD
    06 http://www.filecondo.com/dl.php?f=aaa7751NfQ3l
    07 http://www.filecondo.com/dl.php?f=p8215d1NiNGJ

    Download:cornfile
    01 https://www.cornfile.com/5rc6c7v52ipp fix
    02 https://www.cornfile.com/kapb2kixrj69
    03 https://www.cornfile.com/b3w5gv8xw3ol
    04 https://www.cornfile.com/mrxwto2hp7jp
    05 https://www.cornfile.com/9eq19vhbp7jh
    06 https://www.cornfile.com/wgqfmq1isewt
    07 https://www.cornfile.com/zu32it2li5uh

  2. The Following 5 Users Say Thank You to Duckload.us For This Useful Post:

    jangska (03-07-2022), neorun (12-30-2021), Wesker_TOT (01-13-2022), whiteherbie (03-20-2022), yakung08 (02-06-2022)

  3. #2
    Junior Member
    สมัครเมื่อ
    Aug 2015
    โพสต์
    2
    Thanks
    0
    Thanked 0 Times in 0 Posts
    ตอนแรกของ fiiecondo 1.79 gb ไม่เต็ม 1.89 gb ครับ

  4. #3
    Administrators รูปส่วนตัว Duckload.us
    สมัครเมื่อ
    Dec 2010
    โพสต์
    135,849
    Thanks
    7
    Thanked 140,642 Times in 61,729 Posts
    อ้างอิง โพสต์ต้นฉบับโดยคุณ kastoy3450 ดูโพสต์
    ตอนแรกของ fiiecondo 1.79 gb ไม่เต็ม 1.89 gb ครับ
    เรียนแจ้ง แก้ไขแล้วครับ

  5. #4
    Junior Member
    สมัครเมื่อ
    Aug 2015
    โพสต์
    2
    Thanks
    0
    Thanked 0 Times in 0 Posts
    อ้างอิง โพสต์ต้นฉบับโดยคุณ Duckload.us ดูโพสต์
    เรียนแจ้ง แก้ไขแล้วครับ
    ขอบคุณครับ

  6. #5
    Senior Member
    สมัครเมื่อ
    Dec 2013
    โพสต์
    3,645
    Thanks
    5,552
    Thanked 0 Times in 0 Posts
    ขอบคุณครับ...

  7. #6
    Senior Member
    สมัครเมื่อ
    Jul 2013
    โพสต์
    3,214
    Thanks
    0
    Thanked 0 Times in 0 Posts
    ขอบคุณครับ

  8. #7
    Senior Member
    สมัครเมื่อ
    Jul 2013
    โพสต์
    3,214
    Thanks
    0
    Thanked 0 Times in 0 Posts
    EP7 เป็น อันนี้ครับ
    Peacemaker.2022.S01E07.Stop.Dragon.My.Heart.Around .1080p.mkv
    รบกวนด้วยนะครับแอด

  9. #8
    Senior Member
    สมัครเมื่อ
    Jul 2012
    โพสต์
    7,937
    Thanks
    0
    Thanked 0 Times in 0 Posts
    ขอบคุณมากจ้า

  10. #9
    Senior Member รูปส่วนตัว gozilla02
    สมัครเมื่อ
    Jul 2012
    โพสต์
    273
    Thanks
    95
    Thanked 1 Time in 1 Post
    EP7 เป็น อันนี้ครับ
    Peacemaker.2022.S01E07.Stop.Dragon.My.Heart.Around .1080p.mkv
    รบกวนด้วยนะครับแอด
    http://rabbitfileloveav.blogspot.com/ โหลดหนัง AV 18+ใหม่ล่าสุด อัพเดตทุกวัน มีทุกแนว 1080P Cornfile 10000 เรื่อง

  11. #10
    Senior Member
    สมัครเมื่อ
    Dec 2011
    โพสต์
    2,773
    Thanks
    326
    Thanked 0 Times in 0 Posts
    Thank you ka

+ ตอบกลับกระทู้

ข้อมูลกระทู้

Users Browsing this Thread

ในขณะนี้มี 1 ท่านดูกระทู้อยู่. (0 สมาชิกและ 1 ผู้เยี่ยมชม)

     

กฎการโพสต์ข้อความ

  • ท่าน ไม่สามารถ ตั้งกระทู้ใหม่ได้
  • ท่าน ไม่สามารถ ตอบกระทู้ได้
  • ท่าน ไม่สามารถ แนบไฟล์ได้
  • ท่าน ไม่สามารถ แก้ไขข้อความโพสต์ได้
  • BB code สถานะ เปิด
  • Smilies สถานะ เปิด
  • [IMG] สถานะ เปิด
  • HTML สถานะ ปิด