+ ตอบกลับกระทู้
สรุปผลการค้นหา 1 ถึง 8 จากทั้งหมด 8
  1. #1
    Administrators รูปส่วนตัว Duckload.us
    สมัครเมื่อ
    Dec 2010
    โพสต์
    135,849
    Thanks
    7
    Thanked 140,644 Times in 61,731 Posts

    Thumbs up [ฝรั่ง] - Eternals (2021) 1080p IMAX Edition [ เสียงอังกฤษ 5.1 + พากย์ไทย 5.1 ] ● [ บรรยายไทย + อังกฤษ PGS,SRT ] มาสเตอร์จาก Disney+ Hotstar TH





    ภาพยนตร์เรื่องล่าสุดจาก Marvel Studios ที่จะพาคุณไปพบกับทีมของเหล่าซูเปอร์ฮีโร่สุดทรงพลัง ของจักรวาลมาร์เวล “Eternals” มหากาพย์อันยาวนานของเหล่าเทพอมตะที่รวมตัวกันเพื่อป กป้องมวลมนุษย์จากศัตรูร้าย


    Eternals คือกลุ่มฮีโร่เผ่าพันธุ์อมตะจากดวงดาวอันไกลโพ้น ผู้มีพลังแห่งจักรวาล หรือ Cosmic Energy ที่อาศัยอยู่บนโลกมาหลายพันปีเพื่อปกป้องมนุษยชาติจา กเหล่าเอเลียนผู้คุกคามนามว่า Deviants ครั้งนี้ Eternals ต้องกลับมารวมตัวกันอีกครั้งหลังได้รับการแจ้งเตือนจ าก Celestials ผู้สร้างจักรวาล ถึงภัยคุกคามของ Deviants ซึ่งเป็นผลพวงจากเหตุการณ์ดีดนิ้วของธานอส และเหล่า Avengers นั่นเอง

    Format : Matroska
    Format version : Version 4
    File size : 8.21 GiB
    Duration : 2 h 35 min
    Overall bit rate mode : Variable
    Overall bit rate : 7 544 kb/s
    Encoded date : UTC 2022-01-12 11:20:17
    Writing application : mkvmerge v26.0.0 ('In The Game') 64-bit
    Writing library : libebml v1.3.6 + libmatroska v1.4.9

    Video
    ID : 1
    Format : AVC
    Format/Info : Advanced Video Codec
    Format profile : [email protected]
    Format settings : CABAC / 4 Ref Frames
    Format settings, CABAC : Yes
    Format settings, Reference : 4 frames
    Codec ID : V_MPEG4/ISO/AVC
    Duration : 2 h 35 min
    Bit rate mode : Variable
    Bit rate : 6 561 kb/s
    Maximum bit rate : 12.7 Mb/s
    Width : 1 920 pixels
    Height : 1 080 pixels
    Display aspect ratio : 16:9
    Frame rate mode : Constant
    Frame rate : 23.976 (24000/1001) FPS
    Color space : YUV
    Chroma subsampling : 4:2:0
    Bit depth : 8 bits
    Scan type : Progressive
    Bits/(Pixel*Frame) : 0.132
    Stream size : 7.14 GiB (87%)
    Default : Yes
    Forced : No
    Color range : Limited
    Color primaries : BT.709
    Transfer characteristics : BT.709
    Matrix coefficients : BT.709

    Audio #1
    ID : 2
    Format : E-AC-3 JOC
    Format/Info : Enhanced AC-3 with Joint Object Coding
    Commercial name : Dolby Digital Plus with Dolby Atmos
    Codec ID : A_EAC3
    Duration : 2 h 35 min
    Bit rate mode : Constant
    Bit rate : 768 kb/s
    Channel(s) : 6 channels
    Channel layout : L R C LFE Ls Rs
    Sampling rate : 48.0 kHz
    Frame rate : 31.250 FPS (1536 SPF)
    Compression mode : Lossy
    Stream size : 856 MiB (10%)
    Title : English 5.1
    Language : English
    Service kind : Complete Main
    Default : No
    Forced : No
    Complexity index : 16
    Number of dynamic objects : 15
    Bed channel count : 1 channel
    Bed channel configuration : LFE

    Audio #2
    ID : 3
    Format : E-AC-3
    Format/Info : Enhanced AC-3
    Commercial name : Dolby Digital Plus
    Codec ID : A_EAC3
    Duration : 2 h 35 min
    Bit rate mode : Constant
    Bit rate : 192 kb/s
    Channel(s) : 6 channels
    Channel layout : L R C LFE Ls Rs
    Sampling rate : 48.0 kHz
    Frame rate : 31.250 FPS (1536 SPF)
    Compression mode : Lossy
    Stream size : 214 MiB (3%)
    Title : Thai 5.1 - [email protected]
    Language : Thai
    Service kind : Complete Main
    Default : Yes
    Forced : No

    Text #1
    ID : 4
    Format : PGS
    Codec ID : S_HDMV/PGS
    Codec ID/Info : Picture based subtitle format used on BDs/HD-DVDs
    Duration : 2 h 35 min
    Bit rate : 20.7 kb/s
    Count of elements : 3328
    Stream size : 23.0 MiB (0%)
    Title : Thai PGS - [email protected]
    Language : Thai
    Default : Yes
    Forced : Yes

    Text #2
    ID : 5
    Format : UTF-8
    Codec ID : S_TEXT/UTF8
    Codec ID/Info : UTF-8 Plain Text
    Duration : 2 h 35 min
    Bit rate : 84 b/s
    Count of elements : 1665
    Stream size : 96.2 KiB (0%)
    Title : Thai SRT - [email protected]
    Language : Thai
    Default : No
    Forced : No

    Text #3
    ID : 6
    Format : UTF-8
    Codec ID : S_TEXT/UTF8
    Codec ID/Info : UTF-8 Plain Text
    Duration : 2 h 33 min
    Bit rate : 40 b/s
    Count of elements : 1713
    Stream size : 45.5 KiB (0%)
    Title : English SRT
    Language : English
    Default : No
    Forced : No

    Menu
    02:25:44.369 : en:Credits











    Download:filecondo
    8.21 GB Eternals.2021.IMAX.1080p.DSNP.WEB-DL.DDP5.1.Atmos.H.264.TH.mkv
    http://www.filecondo.com/dl.php?f=I9e4f21N7CRo
    8.26 GB Eternals.(2021).ฮีโร่พลังเทพเจ้า.IMAX.Edition1080p .mkv
    http://www.filecondo.com/dl.php?f=S89c971N7S3W
    5.52 GB Eternals.2021.1080p.WEBRip.x264.DDP5.1.Atmos.dts_G OLD_CUP.mkv
    http://www.filecondo.com/dl.php?f=Ef46641N7XPK
    6.1 GB Eternals_(2021)_IMAX_(1080p_DSNP_WEB-DL_x265_).mkv
    http://www.filecondo.com/dl.php?f=me98ab1N8jMz

    Download:cornfile
    Eternals.2021.IMAX.1080p.DSNP.WEB-DL.DDP5.1.Atmos.H.264.TH.mkv - 8.2 GB
    Eternals.2021.1080p.WEBRip.x264.DDP5.1.Atmos.dts_G OLD CUP.mkv - 5.5 GB
    Eternals (2021) IMAX (1080p DSNP WEB-DL x265 ).mkv - 6.1 GB

  2. The Following 9 Users Say Thank You to Duckload.us For This Useful Post:

    agg001 (01-14-2022), bigbang06 (01-12-2022), jackjangri (01-13-2022), jangska (01-13-2022), kappa (01-15-2022), noi54 (01-12-2022), sawara (01-12-2022), Wesker_TOT (01-13-2022), yakung08 (01-13-2022)

  3. #2
    Junior Member
    สมัครเมื่อ
    Apr 2020
    โพสต์
    6
    Thanks
    0
    Thanked 0 Times in 0 Posts
    ขอบคุณครับ

  4. #3
    Senior Member
    สมัครเมื่อ
    Dec 2013
    โพสต์
    609
    Thanks
    554
    Thanked 0 Times in 0 Posts
    ขอบคุณครับบ

  5. #4
    Senior Member
    สมัครเมื่อ
    Dec 2013
    โพสต์
    3,648
    Thanks
    5,554
    Thanked 0 Times in 0 Posts
    ขอบคุณครับ...

  6. #5
    Junior Member
    สมัครเมื่อ
    Mar 2013
    โพสต์
    4
    Thanks
    1
    Thanked 0 Times in 0 Posts
    ขอบคุณครับ

  7. #6
    Member
    สมัครเมื่อ
    Sep 2019
    โพสต์
    80
    Thanks
    0
    Thanked 0 Times in 0 Posts
    ขอบคุณครับ

  8. #7
    Senior Member
    สมัครเมื่อ
    Jul 2013
    โพสต์
    3,214
    Thanks
    0
    Thanked 0 Times in 0 Posts
    ขอบคุณครับ

  9. #8
    I'm donate !
    สมัครเมื่อ
    Jun 2011
    โพสต์
    420
    Thanks
    574
    Thanked 40 Times in 29 Posts
    ขอบคุณครับ

+ ตอบกลับกระทู้

ข้อมูลกระทู้

Users Browsing this Thread

ในขณะนี้มี 1 ท่านดูกระทู้อยู่. (0 สมาชิกและ 1 ผู้เยี่ยมชม)

     

กฎการโพสต์ข้อความ

  • ท่าน ไม่สามารถ ตั้งกระทู้ใหม่ได้
  • ท่าน ไม่สามารถ ตอบกระทู้ได้
  • ท่าน ไม่สามารถ แนบไฟล์ได้
  • ท่าน ไม่สามารถ แก้ไขข้อความโพสต์ได้
  • BB code สถานะ เปิด
  • Smilies สถานะ เปิด
  • [IMG] สถานะ เปิด
  • HTML สถานะ ปิด