+ ตอบกลับกระทู้
สรุปผลการค้นหา 1 ถึง 2 จากทั้งหมด 2
  1. #1
    Administrators รูปส่วนตัว Duckload.us
    สมัครเมื่อ
    Dec 2010
    โพสต์
    152,670
    Thanks
    7
    Thanked 159,860 Times in 69,926 Posts

    Lightbulb [จีน]-[4K] Put Your Head on My Shoulder อุ่นไอในใจเธอ 4K Ep.01-24+SP จบ [2160p][พากย์ไทย-ซับไทย]-WEB-DL.H.265.1080p. [Hi-def rip from Master]-[พากย์ไทย บรรยายไทย]




    อุ่นไอในใจเธอ ซีรีส์จีนรักโรแมนติกที่จะพาเราย้อนสู่วัยเรียนอีกคร ั้ง เรื่องราวของซือถูมั่ว(ฉิงเฟย)สาวบัญชีที่กำลังจะเรี ยนจบ แต่เธอเองยังสับสนกับอนาคต เพราะตั้งแต่เล็กจนโตเธอขาดความมั่นใจและไม่สามารถวา งแผนหรือตัดสินใจเลือกอะไรได้ด้วยตัวเอง จนกระทั่งกู้เว่ยอี้(หลินอี)หนุ่มอัจฉริยะสาขาฟิสิกส ์เดินเข้ามาในชีวิตเธอ เขาทำให้โลกหม่นๆของเธอแปรเปลี่ยนไป โลกใบใหม่ของเขาและเธอต่างอลอวลไปด้วยไอแห้่งความรัก













    Video
    ID : 1
    Format : HEVC
    Format/Info : High Efficiency Video Coding
    Format profile : Main@L5@Main
    Codec ID : V_MPEGH/ISO/HEVC
    Duration : 42 min 47 s
    Bit rate : 5 438 kb/s
    Width : 3 840 pixels
    Height : 2 160 pixels
    Display aspect ratio : 16:9
    Frame rate mode : Constant
    Frame rate : 25.000 FPS
    Color space : YUV
    Chroma subsampling : 4:2:0
    Bit depth : 8 bits
    Bits/(Pixel*Frame) : 0.026
    Stream size : 1.63 GiB (92%)
    Default : Yes
    Forced : No

    Audio #1
    ID : 2
    Format : AC-3
    Format/Info : Audio Coding 3
    Commercial name : Dolby Digital
    Codec ID : A_AC3
    Duration : 42 min 47 s
    Bit rate mode : Constant
    Bit rate : 192 kb/s
    Channel(s) : 2 channels
    Channel layout : L R
    Sampling rate : 48.0 kHz
    Frame rate : 31.250 FPS (1536 SPF)
    Compression mode : Lossy
    Stream size : 58.8 MiB (3%)
    Language : Thai
    Service kind : Complete Main
    Default : Yes
    Forced : No

    Audio #2
    ID : 3
    Format : AAC LC
    Format/Info : Advanced Audio Codec Low Complexity
    Codec ID : A_AAC-2
    Duration : 42 min 47 s
    Bit rate : 128 kb/s
    Channel(s) : 2 channels
    Channel layout : L R
    Sampling rate : 48.0 kHz
    Frame rate : 46.875 FPS (1024 SPF)
    Compression mode : Lossy
    Stream size : 39.1 MiB (2%)
    Title : Mandarin
    Language : Chinese
    Default : No
    Forced : No

    Audio #3
    ID : 4
    Format : AAC LC
    Format/Info : Advanced Audio Codec Low Complexity
    Codec ID : A_AAC-2
    Duration : 42 min 47 s
    Bit rate : 128 kb/s
    Channel(s) : 2 channels
    Channel layout : L R
    Sampling rate : 48.0 kHz
    Frame rate : 46.875 FPS (1024 SPF)
    Compression mode : Lossy
    Stream size : 39.1 MiB (2%)
    Title : English
    Language : English
    Default : No
    Forced : No

    Text #1
    ID : 5
    Format : ASS
    Codec ID : S_TEXT/ASS
    Codec ID/Info : Advanced Sub Station Alpha
    Duration : 42 min 24 s
    Bit rate : 175 b/s
    Count of elements : 673
    Compression mode : Lossless
    Stream size : 54.6 KiB (0%)
    Title : Thai Spark (TV)
    Language : Thai
    Default : No
    Forced : No

    Text #2
    ID : 6
    Format : ASS
    Codec ID : S_TEXT/ASS
    Codec ID/Info : Advanced Sub Station Alpha
    Duration : 42 min 24 s
    Bit rate : 175 b/s
    Count of elements : 673
    Compression mode : Lossless
    Stream size : 54.6 KiB (0%)
    Title : Thai Spark (Pc)
    Language : Thai
    Default : Yes
    Forced : No

    Text #3
    ID : 7
    Format : UTF-8
    Codec ID : S_TEXT/UTF8
    Codec ID/Info : UTF-8 Plain Text
    Duration : 42 min 24 s
    Bit rate : 129 b/s
    Count of elements : 673
    Stream size : 40.3 KiB (0%)
    Title : Thai Spark (Srt)
    Language : Thai
    Default : No
    Forced : No



    Put.Your.Head.on.My.Shoulder.2019.SP.1080p.WEB-DL.H-(Spark751).mkv
    http://www.filecondo.com/dl.php?f=71d6051N7IAl

    Put.Your.Head.on.My.Shoulder.2019.E24.2160p.WEB-DL.H265.AAC-(Spark751).mkv
    http://www.filecondo.com/dl.php?f=wb05541N7Izx

    Put.Your.Head.on.My.Shoulder.2019.E23.2160p.WEB-DL.H265.AAC-(Spark751).mkv
    http://www.filecondo.com/dl.php?f=qb41ef1N7Iyy

    Put.Your.Head.on.My.Shoulder.2019.E22.2160p.WEB-DL.H265.AAC-(Spark751).mkv
    http://www.filecondo.com/dl.php?f=1d33bb1N7Ixz

    Put.Your.Head.on.My.Shoulder.2019.E21.2160p.WEB-DL.H265.AAC-(Spark751).mkv
    http://www.filecondo.com/dl.php?f=q2d7551N7IwC

    Put.Your.Head.on.My.Shoulder.2019.E20.2160p.WEB-DL.H265.AAC-(Spark751).mkv
    http://www.filecondo.com/dl.php?f=o9cb291N7IvD

    Put.Your.Head.on.My.Shoulder.2019.E19.2160p.WEB-DL.H265.AAC-(Spark751).mkv
    http://www.filecondo.com/dl.php?f=h27ace1N7IuF

    Put.Your.Head.on.My.Shoulder.2019.E18.2160p.WEB-DL.H265.AAC-(Spark751).mkv
    http://www.filecondo.com/dl.php?f=Qd7dbb1N7ItJ

    Put.Your.Head.on.My.Shoulder.2019.E17.2160p.WEB-DL.H265.AAC-(Spark751).mkv
    http://www.filecondo.com/dl.php?f=V660891N7IsK

    Put.Your.Head.on.My.Shoulder.2019.E16.2160p.WEB-DL.H265.AAC-(Spark751).mkv
    http://www.filecondo.com/dl.php?f=38592b1N7IrM

    Put.Your.Head.on.My.Shoulder.2019.E15.2160p.WEB-DL.H265.AAC-(Spark751).mkv
    http://www.filecondo.com/dl.php?f=g7a1c11N7IqP

    Put.Your.Head.on.My.Shoulder.2019.E14.2160p.WEB-DL.H265.AAC-(Spark751).mkv
    http://www.filecondo.com/dl.php?f=S2f5b61N7IpQ

    Put.Your.Head.on.My.Shoulder.2019.E13.2160p.WEB-DL.H265.AAC-(Spark751).mkv
    http://www.filecondo.com/dl.php?f=a9f3071N7IoT

    Put.Your.Head.on.My.Shoulder.2019.E12.2160p.WEB-DL.H265.AAC-(Spark751).mkv
    http://www.filecondo.com/dl.php?f=C8189a1N7InU

    Put.Your.Head.on.My.Shoulder.2019.E11.2160p.WEB-DL.H265.AAC-(Spark751).mkv
    http://www.filecondo.com/dl.php?f=o411741N7ImX

    Put.Your.Head.on.My.Shoulder.2019.E10.2160p.WEB-DL.H265.AAC-(Spark751).mkv
    http://www.filecondo.com/dl.php?f=1c6b741N7IlY

    Put.Your.Head.on.My.Shoulder.2019.E09.2160p.WEB-DL.H265.AAC-(Spark751).mkv
    http://www.filecondo.com/dl.php?f=Dc11861N7Il1

    Put.Your.Head.on.My.Shoulder.2019.E08.2160p.WEB-DL.H265.AAC-(Spark751).mkv
    http://www.filecondo.com/dl.php?f=t7ad131N7Ik3

    Put.Your.Head.on.My.Shoulder.2019.E07.2160p.WEB-DL.H265.AAC-(Spark751).mkv
    http://www.filecondo.com/dl.php?f=H6259a1N7Ij5

    Put.Your.Head.on.My.Shoulder.2019.E06.2160p.WEB-DL.H265.AAC-(Spark751).mkv
    http://www.filecondo.com/dl.php?f=k312f01N7Ii7

    Put.Your.Head.on.My.Shoulder.2019.E05.2160p.WEB-DL.H265.AAC-(Spark751).mkv
    http://www.filecondo.com/dl.php?f=mb11881N7Ih8

    Put.Your.Head.on.My.Shoulder.2019.E04.2160p.WEB-DL.H265.AAC-(Spark751).mkv
    http://www.filecondo.com/dl.php?f=Aa3a4d1N7Iga

    Put.Your.Head.on.My.Shoulder.2019.E03.2160p.WEB-DL.H265.AAC-(Spark751).mkv
    http://www.filecondo.com/dl.php?f=4c690e1N7Ifb

    Put.Your.Head.on.My.Shoulder.2019.E02.2160p.WEB-DL.H265.AAC-(Spark751).mkv
    http://www.filecondo.com/dl.php?f=P399e71N7Ief

    Put.Your.Head.on.My.Shoulder.2019.E01.2160p.WEB-DL.H265.AAC-(Spark751).mkv
    http://www.filecondo.com/dl.php?f=Pbc5be1N7Idh

  2. The Following 2 Users Say Thank You to Duckload.us For This Useful Post:

    kappa (01-16-2022), lazy_lady (03-29-2023)

  3. #2
    Junior Member
    สมัครเมื่อ
    Apr 2019
    โพสต์
    16
    Thanks
    10
    Thanked 0 Times in 0 Posts
    รบกวนหน่อยค่ะ ตอนที่ 7 8 17 18 โหลดไม่ได้ค่ะ

+ ตอบกลับกระทู้

ข้อมูลกระทู้

Users Browsing this Thread

ในขณะนี้มี 1 ท่านดูกระทู้อยู่. (0 สมาชิกและ 1 ผู้เยี่ยมชม)

     

กฎการโพสต์ข้อความ

  • ท่าน ไม่สามารถ ตั้งกระทู้ใหม่ได้
  • ท่าน ไม่สามารถ ตอบกระทู้ได้
  • ท่าน ไม่สามารถ แนบไฟล์ได้
  • ท่าน ไม่สามารถ แก้ไขข้อความโพสต์ได้
  • BB code สถานะ เปิด
  • Smilies สถานะ เปิด
  • [IMG] สถานะ เปิด
  • HTML สถานะ ปิด