+ ตอบกลับกระทู้
สรุปผลการค้นหา 1 ถึง 4 จากทั้งหมด 4
  1. #1
    Administrators รูปส่วนตัว Duckload.us
    สมัครเมื่อ
    Dec 2010
    โพสต์
    137,397
    Thanks
    7
    Thanked 143,211 Times in 62,344 Posts

    Thumbs up [ฝรั่ง]-New Series] Peacemaker (2022) Season 1 EP.1-7 [เสียง:อังกฤษ AC-3 5.1][บรรยาย: ไทย PGS และ อังกฤษ SRT]-WEB-DL.H.264.1080p. [From HD-TV]-[Soundtrack บรรยายไทย]



    พีซเมคเกอร์ ซีซั่น 1
    ต้นกำเนิดและภารกิจต่าง ๆ ของซูเปอร์ฮีโร่พีซเมคเกอร์ผู้อุทิศตนเพื่อสันติภาพข องโลกและพร้อมต่อสู้ สังหาร ใช้อาวุธ หรือแม้กระทั่งก่อสงครามเพื่อบรรลุเป้าหมายนี้

    Video
    ID : 1
    Format : AVC
    Format/Info : Advanced Video Codec
    Format profile : [email protected]
    Format settings, CABAC : Yes
    Format settings, RefFrames : 4 frames
    Codec ID : V_MPEG4/ISO/AVC
    Duration : 46 min 40 s
    Bit rate mode : Variable
    Bit rate : 8 250 kb/s
    Maximum bit rate : 12.4 Mb/s
    Width : 1 920 pixels
    Height : 1 080 pixels
    Display aspect ratio : 16:9
    Frame rate mode : Constant
    Frame rate : 23.976 (24000/1001) FPS
    Color space : YUV
    Chroma subsampling : 4:2:0
    Bit depth : 8 bits
    Scan type : Progressive
    Bits/(Pixel*Frame) : 0.166
    Stream size : 2.68 GiB (95%)
    Writing library : x264 core 157 r2965 861cec4
    Encoding settings : cabac=1 / ref=4 / deblock=1:0:0 / analyse=0x3:0x113 / me=hex / subme=7 / psy=1 / psy_rd=1.00:0.00 / mixed_ref=1 / me_range=16 / chroma_me=1 / trellis=1 / 8x8dct=1 / cqm=0 / deadzone=21,11 / fast_pskip=1 / chroma_qp_offset=-2 / threads=34 / lookahead_threads=5 / sliced_threads=0 / nr=0 / decimate=1 / interlaced=0 / bluray_compat=0 / constrained_intra=0 / bframes=3 / b_pyramid=2 / b_adapt=1 / b_bias=0 / direct=1 / weightb=1 / open_gop=0 / weightp=2 / keyint=96 / keyint_min=96 / scenecut=40 / intra_refresh=0 / rc_lookahead=40 / rc=2pass / mbtree=1 / bitrate=8250 / ratetol=1.0 / qcomp=0.60 / qpmin=0 / qpmax=69 / qpstep=4 / cplxblur=20.0 / qblur=0.5 / vbv_maxrate=12375 / vbv_bufsize=6187 / nal_hrd=vbr / filler=0 / ip_ratio=1.40 / aq=1:1.00
    Default : Yes
    Forced : No
    Color range : Limited
    Color primaries : BT.709
    Transfer characteristics : BT.709
    Matrix coefficients : BT.709

    Audio
    ID : 2
    Format : AC-3
    Format/Info : Audio Coding 3
    Format settings, Endianness : Big
    Codec ID : A_AC3
    Duration : 46 min 40 s
    Bit rate mode : Constant
    Bit rate : 384 kb/s
    Channel(s) : 6 channels
    Channel positions : Front: L C R, Side: L R, LFE
    Sampling rate : 48.0 kHz
    Frame rate : 31.250 FPS (1536 SPF)
    Bit depth : 16 bits
    Compression mode : Lossy
    Stream size : 128 MiB (4%)
    Title : [English-AC-3]
    Language : English
    Service kind : Complete Main
    Default : Yes
    Forced : No

    Text #1
    ID : 3
    Format : PGS
    Muxing mode : zlib
    Codec ID : S_HDMV/PGS
    Codec ID/Info : Picture based subtitle format used on BDs/HD-DVDs
    Duration : 46 min 21 s
    Bit rate : 63.9 kb/s
    Count of elements : 1320
    Stream size : 21.2 MiB (1%)
    Title : [Thai HBO PGS]
    Language : Thai
    Default : Yes
    Forced : No

    Text #2
    ID : 4
    Format : UTF-8
    Codec ID : S_TEXT/UTF8
    Codec ID/Info : UTF-8 Plain Text
    Duration : 46 min 21 s
    Bit rate : 98 b/s
    Count of elements : 943
    Stream size : 33.5 KiB (0%)
    Title : English
    Language : English
    Default : No
    Forced : No










    พีซเมคเกอร์ ซีซั่น 1
    ต้นกำเนิดและภารกิจต่าง ๆ ของซูเปอร์ฮีโร่พีซเมคเกอร์ผู้อุทิศตนเพื่อสันติภาพข องโลกและพร้อมต่อสู้ สังหาร ใช้อาวุธ หรือแม้กระทั่งก่อสงครามเพื่อบรรลุเป้าหมายนี้

    Video
    ID : 1
    Format : AVC
    Format/Info : Advanced Video Codec
    Format profile : [email protected]
    Format settings, CABAC : Yes
    Format settings, RefFrames : 4 frames
    Codec ID : V_MPEG4/ISO/AVC
    Duration : 46 min 40 s
    Bit rate mode : Variable
    Bit rate : 8 250 kb/s
    Maximum bit rate : 12.4 Mb/s
    Width : 1 920 pixels
    Height : 1 080 pixels
    Display aspect ratio : 16:9
    Frame rate mode : Constant
    Frame rate : 23.976 (24000/1001) FPS
    Color space : YUV
    Chroma subsampling : 4:2:0
    Bit depth : 8 bits
    Scan type : Progressive
    Bits/(Pixel*Frame) : 0.166
    Stream size : 2.68 GiB (95%)
    Writing library : x264 core 157 r2965 861cec4
    Encoding settings : cabac=1 / ref=4 / deblock=1:0:0 / analyse=0x3:0x113 / me=hex / subme=7 / psy=1 / psy_rd=1.00:0.00 / mixed_ref=1 / me_range=16 / chroma_me=1 / trellis=1 / 8x8dct=1 / cqm=0 / deadzone=21,11 / fast_pskip=1 / chroma_qp_offset=-2 / threads=34 / lookahead_threads=5 / sliced_threads=0 / nr=0 / decimate=1 / interlaced=0 / bluray_compat=0 / constrained_intra=0 / bframes=3 / b_pyramid=2 / b_adapt=1 / b_bias=0 / direct=1 / weightb=1 / open_gop=0 / weightp=2 / keyint=96 / keyint_min=96 / scenecut=40 / intra_refresh=0 / rc_lookahead=40 / rc=2pass / mbtree=1 / bitrate=8250 / ratetol=1.0 / qcomp=0.60 / qpmin=0 / qpmax=69 / qpstep=4 / cplxblur=20.0 / qblur=0.5 / vbv_maxrate=12375 / vbv_bufsize=6187 / nal_hrd=vbr / filler=0 / ip_ratio=1.40 / aq=1:1.00
    Default : Yes
    Forced : No
    Color range : Limited
    Color primaries : BT.709
    Transfer characteristics : BT.709
    Matrix coefficients : BT.709

    Audio
    ID : 2
    Format : AC-3
    Format/Info : Audio Coding 3
    Format settings, Endianness : Big
    Codec ID : A_AC3
    Duration : 46 min 40 s
    Bit rate mode : Constant
    Bit rate : 384 kb/s
    Channel(s) : 6 channels
    Channel positions : Front: L C R, Side: L R, LFE
    Sampling rate : 48.0 kHz
    Frame rate : 31.250 FPS (1536 SPF)
    Bit depth : 16 bits
    Compression mode : Lossy
    Stream size : 128 MiB (4%)
    Title : [English-AC-3]
    Language : English
    Service kind : Complete Main
    Default : Yes
    Forced : No

    Text #1
    ID : 3
    Format : PGS
    Muxing mode : zlib
    Codec ID : S_HDMV/PGS
    Codec ID/Info : Picture based subtitle format used on BDs/HD-DVDs
    Duration : 46 min 21 s
    Bit rate : 63.9 kb/s
    Count of elements : 1320
    Stream size : 21.2 MiB (1%)
    Title : [Thai HBO PGS]
    Language : Thai
    Default : Yes
    Forced : No

    Text #2
    ID : 4
    Format : UTF-8
    Codec ID : S_TEXT/UTF8
    Codec ID/Info : UTF-8 Plain Text
    Duration : 46 min 21 s
    Bit rate : 98 b/s
    Count of elements : 943
    Stream size : 33.5 KiB (0%)
    Title : English
    Language : English
    Default : No
    Forced : No






    Download:filecondo
    01 http://www.filecondo.com/dl.php?f=K599a11N8bIy
    02 http://www.filecondo.com/dl.php?f=J3cfc41N8bLN
    03 http://www.filecondo.com/dl.php?f=95d1db1N8bQk
    04 http://www.filecondo.com/dl.php?f=ndee481NaxuE
    05 http://www.filecondo.com/dl.php?f=sb006b1Nd4NY
    06 http://www.filecondo.com/dl.php?f=g151d91NfBE8
    07 http://www.filecondo.com/dl.php?f=g12f2f1NiNDF
    08 http://www.filecondo.com/dl.php?f=Leeae71NkFd8

    Download:cornfile
    Peacemaker.2022.S01E01.A.Whole.New.Whirled.1080p.m kv - 2.8 GB
    Peacemaker.2022.S01E02.Best.Friends.For.Never.1080 p.mkv - 2.5 GB
    Peacemaker.2022.S01E03.Better.Goff.Dead.1080p.mkv - 2.4 GB
    Peacemaker.2022.S01E04.The.Choad.Less.Traveled.108 0p.mkv - 2.8 GB
    Peacemaker.2022.S01E05.Monkey.Dory.1080p.mkv - 2.6 GB
    Peacemaker.2022.S01E06.Murn.After.Reading.1080p.mk v - 2.8 GB
    Peacemaker.2022.S01E07.Stop.Dragon.My.Heart.Around .1080p.mkv - 2.4 GB
    Peacemaker.2022.S01E08.It's.Cow.or.Never.1080p.mkv - 2.7 GB

  2. The Following 6 Users Say Thank You to Duckload.us For This Useful Post:

    dulobobo (01-23-2022), jackjangri (01-16-2022), jangska (03-07-2022), kappa (03-07-2022), Wesker_TOT (01-29-2022), WiNting (02-12-2022)

  3. #2
    I'm donate !
    สมัครเมื่อ
    Jun 2011
    โพสต์
    469
    Thanks
    623
    Thanked 40 Times in 29 Posts
    thankyou...

  4. #3
    Senior Member
    สมัครเมื่อ
    Jul 2013
    โพสต์
    3,357
    Thanks
    0
    Thanked 0 Times in 0 Posts
    หวังว่าคงจะมีเสียงไทยในไม่ช้า ขอบคุรครับ

  5. #4
    Senior Member
    สมัครเมื่อ
    Dec 2013
    โพสต์
    3,787
    Thanks
    5,692
    Thanked 0 Times in 0 Posts
    ขอบคุณครับ...

+ ตอบกลับกระทู้

ข้อมูลกระทู้

Users Browsing this Thread

ในขณะนี้มี 1 ท่านดูกระทู้อยู่. (0 สมาชิกและ 1 ผู้เยี่ยมชม)

     

กฎการโพสต์ข้อความ

  • ท่าน ไม่สามารถ ตั้งกระทู้ใหม่ได้
  • ท่าน ไม่สามารถ ตอบกระทู้ได้
  • ท่าน ไม่สามารถ แนบไฟล์ได้
  • ท่าน ไม่สามารถ แก้ไขข้อความโพสต์ได้
  • BB code สถานะ เปิด
  • Smilies สถานะ เปิด
  • [IMG] สถานะ เปิด
  • HTML สถานะ ปิด